<?xml version="1.0" standalone="no"?>
<!DOCTYPE svg PUBLIC "-//W3C//DTD SVG 1.1//EN" "http://www.w3.org/Graphics/SVG/1.1/DTD/svg11.dtd" >
<svg xmlns="http://www.w3.org/2000/svg" xmlns:xlink="http://www.w3.org/1999/xlink" version="1.1">
<metadata>
Created by FontForge 20161116 at Tue Jun 27 15:03:48 2017
 By Jimmy Warting
Generated in 2013 by FontLab Studio. Copyright info pending.
</metadata>
<defs>
<font id="MediumItalic" horiz-adv-x="570" >
  <font-face 
    font-family="CircularStd"
    font-weight="500"
    font-style="italic"
    font-stretch="normal"
    units-per-em="1000"
    panose-1="2 11 6 4 2 1 1 1 1 2"
    ascent="809"
    descent="-191"
    x-height="487"
    cap-height="709"
    bbox="-134 -234 1577 979"
    underline-thickness="80"
    underline-position="-195"
    slope="-12"
    stemh="104"
    stemv="91"
    unicode-range="U+000D-FEFF"
  />
<missing-glyph horiz-adv-x="569" 
d="M2 0v709h565v-709h-565zM98 96h373v517h-373v-517z" />
    <glyph glyph-name="f_f" unicode="ff" horiz-adv-x="652" 
d="M144 0l-116.999 0.00195312l82 387h-82l21 100h83l18 86c27 128 110 157 184 157c38 0 66 -11 73 -15l-21 -96c0 -0.0527344 -0.0419922 -0.078125 -0.124023 -0.078125c-1.48535 0 -16.2441 8.07715 -40.876 8.07715c-38 0 -70 -17 -81 -69l-16 -71h187l18 86
c27 128 110 157 184 157c38 0 66 -11 73 -15l-21 -96c0 -0.0527344 -0.0419922 -0.078125 -0.125 -0.078125c-1.48535 0 -16.2441 8.07715 -40.876 8.07715c-38 0 -70 -17 -81 -69l-15 -71h106l-21 -100h-107l-81 -387h-118l82 387h-186z" />
    <glyph glyph-name="f_f_i" unicode="ffi" horiz-adv-x="909" 
d="M762 653c0 46 40 82 83 82c40 0 68 -29 68 -66c0 -48 -41 -83 -83 -83c-40 0 -68 30 -68 67zM144 0l-116.999 0.00195312l82 387h-82l21 100h83l18 86c27 128 110 157 184 157c38 0 66 -11 73 -15l-21 -96c0 -0.0527344 -0.0419922 -0.078125 -0.124023 -0.078125
c-1.48535 0 -16.2441 8.07715 -40.876 8.07715c-38 0 -70 -17 -81 -69l-16 -71h187l18 86c27 128 110 157 184 157c38 0 66 -11 73 -15l-21 -96c0 -0.0527344 -0.0419922 -0.078125 -0.125 -0.078125c-1.48535 0 -16.2441 8.07715 -40.876 8.07715c-38 0 -70 -17 -81 -69
l-15 -71h309l-104 -487h-115l83 387h-195l-81 -387h-118l82 387h-186z" />
    <glyph glyph-name="f_f_l" unicode="ffl" horiz-adv-x="914" 
d="M144 0l-116.999 0.00195312l82 387h-82l21 100h83l18 86c27 128 110 157 184 157c38 0 66 -11 73 -15l-21 -96c0 -0.0527344 -0.0419922 -0.078125 -0.124023 -0.078125c-1.48535 0 -16.2441 8.07715 -40.876 8.07715c-38 0 -70 -17 -81 -69l-16 -71h187l18 86
c27 128 110 157 184 157c38 0 66 -11 73 -15l-21 -96c0 -0.0527344 -0.0419922 -0.078125 -0.125 -0.078125c-1.48535 0 -16.2441 8.07715 -40.876 8.07715c-38 0 -70 -17 -81 -69l-15 -71h200l51 237h115l-154 -724h-115l82 387h-201l-81 -387h-118l82 387h-186z" />
    <glyph glyph-name="f_i" unicode="fi" horiz-adv-x="612" 
d="M226 387l-82 -386.999h-117l82 387h-82l21 100h83l19 89c26 125 109 154 183 154c38 0 66 -11 73 -15l-21 -96c0 -0.0527344 -0.0439453 -0.078125 -0.131836 -0.078125c-1.58008 0 -17.2363 8.07715 -41.8682 8.07715c-40 0 -70 -20 -81 -72l-15 -68h316l-104 -487h-115
l82 387h-200zM465 653.001c0 46 40 82 83 82c40 0 68 -29 68 -66c0 -48 -41 -83 -83 -83c-40 0 -68 30 -68 67z" />
    <glyph glyph-name="f_l" unicode="fl" horiz-adv-x="610" 
d="M226 387l-82 -386.999h-117l82 387h-82l21 100h83l19 89c26 125 109 154 183 154c38 0 66 -11 73 -15l-21 -96c0 -0.0527344 -0.0439453 -0.078125 -0.131836 -0.078125c-1.58008 0 -17.2363 8.07715 -41.8682 8.07715c-40 0 -70 -20 -81 -72l-15 -68h200l51 237h115
l-154 -724h-115l82 387h-200z" />
    <glyph glyph-name=".notdef" horiz-adv-x="569" 
d="M2 0v709h565v-709h-565zM98 96h373v517h-373v-517z" />
    <glyph glyph-name=".null" horiz-adv-x="0" 
 />
    <glyph glyph-name=".null" horiz-adv-x="0" 
 />
    <glyph glyph-name="uni000D" unicode="&#xd;" horiz-adv-x="261" 
 />
    <glyph glyph-name="space" unicode=" " horiz-adv-x="261" 
 />
    <glyph glyph-name="exclam" unicode="!" horiz-adv-x="311" 
d="M80 210l75 499h143l-134 -499h-84zM22 58c0 44 35 82 80 82c41 0 67 -29 67 -65c0 -46 -39 -82 -80 -82c-40 0 -67 29 -67 65z" />
    <glyph glyph-name="quotedbl" unicode="&#x22;" horiz-adv-x="413" 
d="M128 383h-42l-4 200c0 44 30 76 74 76c38 0 64 -25 64 -60c0 -12 -5 -28 -10 -39zM309 383h-42l-4 200c0 44 30 76 74 76c38 0 64 -25 64 -60c0 -12 -5 -28 -10 -39z" />
    <glyph glyph-name="numbersign" unicode="#" horiz-adv-x="724" 
d="M83 400v87h143l35 161h96l-35 -161h136l35 161h95l-35 -161h131v-87h-149l-32 -149h131v-87h-150l-35 -164h-95l35 164h-136l-35 -164h-96l35 164h-124v87h143l32 149h-125zM304 400l-32 -149h135l33 149h-136z" />
    <glyph glyph-name="dollar" unicode="$" 
d="M149 -117l24 113c-113 31 -159 125 -159 203c0 8 0 19 1 19l108 18c-1 -6 -1 -12 -1 -18c0 -49 22 -99 72 -121l40 190l-12 6c-78 38 -122 91 -122 171c0 112 94 194 214 199l22 103h94l-24 -114c105 -30 139 -119 139 -176l-107 -20c0 22 -8 70 -54 94l-40 -192l7 -3
c90 -44 132 -100 132 -174c0 -101 -84 -192 -218 -196l-21 -102h-95zM213 475c0 -33 15 -57 45 -75l34 161c-48 -9 -79 -45 -79 -86zM367 172c0 29 -15 52 -47 72l-33 -156c50 9 79 40 80 84z" />
    <glyph glyph-name="percent" unicode="%" horiz-adv-x="781" 
d="M202 425c39 0 78 32 78 85c0 37 -24 62 -63 62s-77 -34 -77 -84c0 -37 23 -63 62 -63zM194 338c-85 0 -146 64 -146 144c0 100 83 177 178 177c84 0 146 -64 146 -145c0 -102 -89 -176 -178 -176zM566 80c39 0 78 32 78 85c0 37 -24 62 -63 62s-77 -34 -77 -84
c0 -37 23 -63 62 -63zM558 -7c-85 0 -146 64 -146 144c0 100 83 177 178 177c84 0 146 -64 146 -145c0 -102 -89 -176 -178 -176zM743 648l-598 -648h-110l599 648h109z" />
    <glyph glyph-name="ampersand" unicode="&#x26;" horiz-adv-x="680" 
d="M598 0h-135l-56 80l-11 -9c-59 -50 -114 -79 -190 -79c-122 0 -196 84 -196 179c0 106 72 166 164 215l15 8l-11 15c-23 32 -50 76 -50 130c0 124 104 185 202 185c111 0 178 -72 178 -159c0 -93 -72 -144 -139 -181l-28 -16l94 -135l211 180l-33 -157l-122 -104z
M128 178c0 -44 37 -82 91 -82c43 0 86 27 124 59l8 6l-107 153l-35 -19c-56 -31 -81 -62 -81 -117zM286 446l34 18c57 30 75 63 75 97c0 39 -29 65 -73 65c-35 0 -81 -23 -81 -83c0 -26 12 -50 25 -68z" />
    <glyph glyph-name="quotesingle" unicode="'" horiz-adv-x="225" 
d="M128 383h-42l-4 200c0 44 30 76 74 76c38 0 64 -25 64 -60c0 -12 -5 -28 -10 -39z" />
    <glyph glyph-name="parenleft" unicode="(" horiz-adv-x="305" 
d="M32 204c0 249 109 459 316 600l53 -72c-152 -111 -270 -280 -270 -522c0 -117 36 -225 94 -318l-79 -49c-62 92 -114 217 -114 361z" />
    <glyph glyph-name="parenright" unicode=")" horiz-adv-x="306" 
d="M272 436c0 -246 -114 -452 -317 -597l-53 71c151 114 271 281 271 525c0 115 -35 223 -93 315l79 49c65 -97 113 -221 113 -363z" />
    <glyph glyph-name="asterisk" unicode="*" horiz-adv-x="444" 
d="M336 709l-25 -130l126 40l12 -88l-128 -40l60 -100l-79 -53l-61 106l-99 -106l-66 54l100 105l-113 39l41 83l112 -40l21 130h99z" />
    <glyph glyph-name="plus" unicode="+" horiz-adv-x="576" 
d="M330 244v-197h-99v197h-188v95h188v195h99v-195h189v-95h-189z" />
    <glyph glyph-name="comma" unicode="," horiz-adv-x="286" 
d="M4 63c0 50 40 86 90 86s85 -36 85 -91c0 -117 -93 -216 -214 -223l13 61c51 8 107 50 118 103c-4 -2 -14 -4 -23 -4c-40 0 -69 28 -69 68z" />
    <glyph glyph-name="hyphen" unicode="-" horiz-adv-x="362" 
d="M297 241h-282l22 103h281z" />
    <glyph glyph-name="period" unicode="." horiz-adv-x="272" 
d="M75 -6c-45 0 -75 34 -75 73c0 48 41 89 91 89c46 0 74 -33 74 -72c0 -50 -41 -90 -90 -90z" />
    <glyph glyph-name="slash" unicode="/" horiz-adv-x="465" 
d="M550 724l-517 -739h-113l516 739h114z" />
    <glyph glyph-name="zero" unicode="0" horiz-adv-x="607" 
d="M147 239c0 -86 35 -147 119 -147c136 0 184 205 184 321c0 84 -31 143 -119 143c-136 0 -184 -200 -184 -317zM259 -15c-165 0 -231 124 -231 253c0 174 87 425 310 425c169 0 231 -123 231 -250c0 -183 -93 -428 -310 -428z" />
    <glyph glyph-name="one" unicode="1" horiz-adv-x="356" 
d="M192 0h-119l97 453h-140l17 78c82 5 150 51 178 117h104z" />
    <glyph glyph-name="two" unicode="2" horiz-adv-x="544" 
d="M-32 0c1 6 4 21 4 27c22 113 81 203 207 261l120 55c52 24 109 60 109 126c0 46 -30 90 -100 90c-78 0 -125 -56 -125 -145v-8l-114 11v6c0 133 93 240 245 240c146 0 214 -84 214 -186c0 -105 -67 -174 -170 -222l-140 -64c-32 -15 -70 -43 -89 -85h334l-23 -106h-472z
" />
    <glyph glyph-name="three" unicode="3" horiz-adv-x="542" 
d="M209 305l-42 98l216 140h-300l21 105h450l-26 -125l-204 -133c82 -9 151 -73 151 -172c0 -120 -98 -233 -252 -233c-150 0 -231 102 -231 207c0 7 0 14 2 23l117 13c-1 -8 -2 -15 -2 -22c0 -62 41 -117 115 -117s129 50 129 123c0 70 -54 99 -106 99c-13 0 -27 -3 -38 -6
z" />
    <glyph glyph-name="four" unicode="4" horiz-adv-x="592" 
d="M-10 142l27 132l362 374h149l-86 -400h115l-22 -106h-116l-28 -142h-118l28 142h-311zM324 248l59 271l-261 -271h202z" />
    <glyph glyph-name="five" unicode="5" horiz-adv-x="538" 
d="M-5 193v6l114 22c-1 -6 -1 -12 -1 -14c0 -60 37 -119 116 -119c67 0 130 46 130 133c0 66 -45 105 -110 105c-42 0 -73 -14 -97 -34l-103 56l137 300h357l-22 -105h-271l-68 -145c28 17 63 25 99 25c121 0 200 -71 200 -189c0 -136 -102 -249 -254 -249
c-135 0 -227 92 -227 208z" />
    <glyph glyph-name="six" unicode="6" horiz-adv-x="566" 
d="M575 625l-47 -93c-34 17 -76 26 -119 26c-117 0 -211 -70 -245 -185c32 33 84 57 145 57c126 0 202 -77 202 -189c0 -155 -121 -256 -260 -256c-126 0 -229 91 -229 246c0 228 151 429 391 429c65 0 127 -12 162 -35zM276 331c-75 0 -133 -54 -133 -131
c0 -65 47 -112 113 -112c68 0 132 50 132 136c0 65 -43 107 -112 107z" />
    <glyph glyph-name="seven" unicode="7" horiz-adv-x="506" 
d="M549 648l-22 -105c-64 -43 -282 -208 -381 -543h-126c92 353 343 526 367 543h-343l22 105h483z" />
    <glyph glyph-name="eight" unicode="8" horiz-adv-x="557" 
d="M292 376c68 0 117 44 117 105c0 43 -33 84 -95 84c-77 0 -119 -48 -119 -105c0 -43 32 -84 97 -84zM121 175c0 -56 46 -92 113 -92c73 0 127 48 127 110c0 50 -35 93 -111 93s-129 -48 -129 -111zM479 186c0 -125 -116 -201 -253 -201s-224 72 -224 178
c0 84 61 152 160 173c-43 19 -83 72 -83 130c0 119 106 197 238 197c137 0 212 -75 212 -167c0 -79 -53 -146 -142 -170c58 -21 92 -80 92 -140z" />
    <glyph glyph-name="nine" unicode="9" horiz-adv-x="562" 
d="M165 428c0 -64 44 -107 111 -107c75 0 129 54 129 130c0 66 -47 109 -110 109c-66 0 -130 -47 -130 -132zM-22 38l48 92c42 -28 89 -38 135 -38c121 0 211 78 231 196c-29 -39 -78 -65 -145 -65c-115 0 -203 78 -203 196c0 152 121 244 257 244c131 0 230 -84 230 -245
c0 -255 -143 -433 -371 -433c-65 0 -135 16 -182 53z" />
    <glyph glyph-name="colon" unicode=":" horiz-adv-x="294" 
d="M79 -6c-44 0 -74 34 -74 72c0 48 41 88 90 88c46 0 73 -32 73 -71c0 -49 -40 -89 -89 -89zM153 332c-44 0 -74 34 -74 72c0 48 41 88 90 88c46 0 73 -32 73 -71c0 -49 -40 -89 -89 -89z" />
    <glyph glyph-name="semicolon" unicode=";" horiz-adv-x="294" 
d="M-1 61c0 48 38 83 86 83s81 -35 81 -88c0 -111 -89 -206 -204 -213l12 59c49 7 102 47 113 98c-4 -2 -14 -4 -22 -4c-38 0 -66 27 -66 65zM153 334c-44 0 -74 34 -74 72c0 48 41 88 90 88c46 0 73 -32 73 -71c0 -49 -40 -89 -89 -89z" />
    <glyph glyph-name="less" unicode="&#x3c;" horiz-adv-x="495" 
d="M23 244v94l422 212v-111l-302 -147l302 -148v-111z" />
    <glyph glyph-name="equal" unicode="=" horiz-adv-x="618" 
d="M62 343v94h475v-94h-475zM62 146v95h475v-95h-475z" />
    <glyph glyph-name="greater" unicode="&#x3e;" horiz-adv-x="495" 
d="M452 338v-94l-422 -211v110l303 148l-303 147v112z" />
    <glyph glyph-name="question" unicode="?" horiz-adv-x="505" 
d="M252 209h-97c3 71 32 143 113 190l54 31c45 26 68 62 68 104c0 43 -30 85 -96 85c-87 0 -128 -68 -128 -142l-111 14c3 134 101 233 248 233c138 0 208 -84 208 -173c0 -100 -60 -163 -139 -208l-50 -28c-44 -26 -66 -62 -70 -106zM115 58c0 44 35 82 80 82
c41 0 67 -29 67 -65c0 -46 -39 -82 -80 -82c-40 0 -67 29 -67 65z" />
    <glyph glyph-name="at" unicode="@" horiz-adv-x="810" 
d="M431 -47c-234 0 -401 152 -401 379c0 233 178 392 391 392c205 0 359 -140 359 -327c0 -151 -94 -258 -199 -259c-49 0 -84 24 -95 60c-27 -40 -75 -62 -119 -62c-88 0 -152 70 -152 172c0 132 92 229 198 229c39 0 86 -19 102 -58l8 45h88l-53 -248c-1 -9 -2 -16 -2 -24
c0 -18 10 -35 34 -35c52 0 103 80 103 179c0 143 -110 246 -271 246c-171 0 -299 -124 -299 -310c0 -170 114 -298 308 -298c67 0 136 20 194 64l44 -61c-55 -52 -156 -84 -238 -84zM493 368c0 53 -27 85 -75 85c-66 0 -109 -65 -109 -135c0 -56 20 -99 77 -99
c61 0 104 62 107 149z" />
    <glyph glyph-name="A" unicode="A" horiz-adv-x="668" 
d="M477 0l-27 178h-285l-102 -178h-135l419 709h135l118 -709h-123zM390 574l-162 -285h205z" />
    <glyph glyph-name="B" unicode="B" horiz-adv-x="607" 
d="M160 709h226c124 0 186 -71 186 -165c0 -84 -57 -162 -139 -185c53 -17 99 -70 99 -142c0 -125 -101 -217 -244 -217h-278zM215 409h102c81 0 134 48 134 116c0 50 -33 82 -99 82h-95zM150 102h121c81 0 140 49 140 120c0 50 -31 86 -103 86h-114z" />
    <glyph glyph-name="C" unicode="C" horiz-adv-x="719" 
d="M416 724c184 0 272 -112 294 -227l-115 -35c-16 77 -74 149 -188 149c-148 0 -251 -132 -251 -300c0 -129 74 -213 195 -213c101 0 168 60 206 145l106 -43c-49 -117 -155 -215 -323 -215c-181 0 -307 133 -307 319c0 271 193 420 383 420z" />
    <glyph glyph-name="D" unicode="D" horiz-adv-x="699" 
d="M152 111h136c119 0 255 100 255 303c0 117 -75 186 -196 186h-91zM286 0h-276l149 709h203c187 0 303 -116 303 -290c0 -274 -188 -419 -379 -419z" />
    <glyph glyph-name="E" unicode="E" horiz-adv-x="578" 
d="M445 0h-435l150 709h435l-24 -112h-314l-40 -188h285l-24 -109h-284l-41 -188h315z" />
    <glyph glyph-name="F" unicode="F" horiz-adv-x="562" 
d="M130 0h-120l150 709h437l-24 -113h-317l-42 -199h284l-23 -111h-284z" />
    <glyph glyph-name="G" unicode="G" horiz-adv-x="749" 
d="M408 612c-146 0 -253 -129 -253 -301c0 -130 74 -216 196 -216c101 0 187 62 213 159h-231l22 105h344l-76 -359h-92l5 76c-46 -56 -113 -90 -201 -90c-171 0 -302 124 -302 318c0 271 192 420 385 420c181 0 272 -109 294 -224l-116 -34c-16 76 -74 146 -188 146z" />
    <glyph glyph-name="H" unicode="H" horiz-adv-x="717" 
d="M557 0h-121l64 303h-306l-64 -303h-120l150 709h120l-62 -293h306l62 293h121z" />
    <glyph glyph-name="I" unicode="I" horiz-adv-x="292" 
d="M132 0h-122l150 709h122z" />
    <glyph glyph-name="J" unicode="J" horiz-adv-x="549" 
d="M428 709h121l-109 -512c-27 -127 -109 -211 -233 -211c-130 0 -202 82 -202 192c0 21 3 47 7 67l5 24l119 18l-11 -54c-2 -12 -5 -27 -5 -39c0 -56 30 -98 92 -98c59 0 95 43 109 110z" />
    <glyph glyph-name="K" unicode="K" horiz-adv-x="677" 
d="M452 0l-164 311l-114 -101l-44 -210h-120l150 709h120l-68 -319l359 319h166l-356 -315l210 -394h-139z" />
    <glyph glyph-name="L" unicode="L" horiz-adv-x="546" 
d="M446 0h-436l150 709h120l-126 -595h316z" />
    <glyph glyph-name="M" unicode="M" horiz-adv-x="937" 
d="M776 0h-118l109 516l-321 -516h-93l-118 512l-109 -512h-116l150 709h145l124 -536l331 536h167z" />
    <glyph glyph-name="N" unicode="N" horiz-adv-x="744" 
d="M583 0h-122l-218 534l-113 -534h-120l150 709h140l205 -509l108 509h121z" />
    <glyph glyph-name="O" unicode="O" horiz-adv-x="756" 
d="M33 299c0 275 191 425 379 425s310 -126 310 -314c0 -275 -190 -425 -378 -425c-187 0 -311 127 -311 314zM600 401c0 132 -79 210 -194 210c-148 0 -249 -135 -250 -303c0 -132 79 -210 194 -210c148 0 248 136 250 303z" />
    <glyph glyph-name="P" unicode="P" horiz-adv-x="590" 
d="M160 709h228c126 0 207 -79 207 -189c0 -148 -115 -240 -268 -240h-138l-59 -280h-120zM364 604h-105l-48 -219h115c84 0 145 44 146 127c0 55 -36 92 -108 92z" />
    <glyph glyph-name="Q" unicode="Q" horiz-adv-x="758" 
d="M33 299c0 275 191 425 379 425s310 -126 310 -314c0 -145 -53 -255 -131 -327l75 -103l-90 -59l-73 101c-50 -24 -105 -37 -159 -37c-187 0 -311 127 -311 314zM330 262l90 59l102 -143c48 56 77 135 78 223c0 132 -79 210 -194 210c-148 0 -249 -135 -250 -303
c0 -132 79 -210 194 -210c31 0 59 6 86 17z" />
    <glyph glyph-name="R" unicode="R" horiz-adv-x="622" 
d="M400 0l-102 283h-108l-60 -283h-120l150 709h239c128 0 200 -78 200 -181c0 -120 -77 -204 -184 -232l113 -296h-128zM212 388h121c85 0 143 49 143 127c0 53 -33 89 -101 89h-117z" />
    <glyph glyph-name="S" unicode="S" horiz-adv-x="583" 
d="M264 91c74 0 121 40 121 97c0 35 -16 67 -67 90l-89 40c-85 38 -134 97 -134 187c0 126 109 219 246 219c181 0 237 -127 237 -204l-113 -20c0 32 -15 118 -130 118c-74 0 -118 -45 -118 -100c0 -42 24 -70 60 -86l89 -40c101 -45 144 -111 144 -192
c0 -111 -95 -215 -245 -215c-191 0 -263 131 -263 234c0 6 1 12 1 18l116 20c-1 -7 -1 -14 -1 -21c0 -72 42 -145 146 -145z" />
    <glyph glyph-name="T" unicode="T" horiz-adv-x="581" 
d="M619 597h-212l-127 -597h-120l126 597h-221l24 112h554z" />
    <glyph glyph-name="U" unicode="U" horiz-adv-x="671" 
d="M550 709h121l-103 -489c-32 -152 -138 -235 -276 -235c-145 0 -241 83 -241 219c0 25 3 47 8 72l91 433h118l-91 -442c-4 -18 -6 -34 -6 -50c0 -71 40 -117 129 -117c79 0 132 48 151 137z" />
    <glyph glyph-name="V" unicode="V" horiz-adv-x="637" 
d="M197 709l74 -552l307 552h131l-407 -709h-121l-106 709h122z" />
    <glyph glyph-name="W" unicode="W" horiz-adv-x="976" 
d="M496 709h124l59 -522l236 522h125l-333 -709h-119l-59 536l-267 -536h-125l-50 709h118l33 -518z" />
    <glyph glyph-name="X" unicode="X" horiz-adv-x="645" 
d="M302 250l-212 -250h-150l311 357l-162 352h135l113 -253l214 253h150l-313 -360l161 -349h-136z" />
    <glyph glyph-name="Y" unicode="Y" horiz-adv-x="619" 
d="M246 302l-159 407h127l110 -292l211 292h144l-314 -411l-62 -298h-121z" />
    <glyph glyph-name="Z" unicode="Z" horiz-adv-x="625" 
d="M507 0h-537l25 116l475 481h-364l24 112h523l-24 -112l-481 -484h383z" />
    <glyph glyph-name="bracketleft" unicode="[" horiz-adv-x="305" 
d="M192 -157h-214l203 956h213l-19 -89h-118l-165 -777h119z" />
    <glyph glyph-name="backslash" unicode="\" horiz-adv-x="438" 
d="M274 -15l-214 739h102l213 -739h-101z" />
    <glyph glyph-name="bracketright" unicode="]" horiz-adv-x="308" 
d="M110 -157h-213l19 90h118l165 777h-119l19 89h214z" />
    <glyph glyph-name="asciicircum" unicode="^" horiz-adv-x="561" 
d="M246 710h94l196 -358h-113l-129 244l-130 -244h-114z" />
    <glyph glyph-name="underscore" unicode="_" horiz-adv-x="521" 
d="M-65 -96v96h511v-96h-511z" />
    <glyph glyph-name="grave" unicode="`" horiz-adv-x="275" 
d="M90 548l-99 148h132l57 -148h-90z" />
    <glyph glyph-name="a" unicode="a" horiz-adv-x="574" 
d="M268 398c-94 0 -144 -101 -144 -189c0 -71 37 -119 104 -119c78 0 142 79 142 195c0 66 -35 113 -102 113zM418 487h113l-79 -371c-6 -30 -10 -60 -10 -92c0 -5 0 -13 1 -24h-108c-1 9 -1 14 -1 20c0 12 0 18 2 40c-28 -36 -73 -69 -134 -69c-124 0 -194 93 -194 215
c0 162 106 294 251 294c87 0 130 -40 146 -71z" />
    <glyph glyph-name="b" unicode="b" horiz-adv-x="581" 
d="M104 0h-112l152 724h114l-58 -277c30 33 81 52 138 52c126 0 189 -93 189 -208c0 -173 -107 -304 -257 -304c-74 0 -130 39 -150 86zM297 398c-79 0 -145 -75 -145 -185c0 -73 43 -123 109 -123c71 0 149 66 149 186c0 79 -43 122 -113 122z" />
    <glyph glyph-name="c" unicode="c" horiz-adv-x="511" 
d="M483 343l-105 -33c-10 45 -44 87 -110 87c-73 0 -148 -61 -148 -183c0 -77 48 -125 119 -125c65 0 101 41 122 81l96 -39c-36 -75 -109 -146 -224 -146c-139 0 -228 97 -228 227c0 174 125 290 271 290c133 0 191 -85 207 -159z" />
    <glyph glyph-name="d" unicode="d" horiz-adv-x="576" 
d="M581 724l-129 -608c-8 -40 -11 -70 -11 -92c0 -3 0 -17 1 -24h-107c-1 9 -1 19 -1 25c0 14 1 26 2 35c-28 -36 -73 -69 -134 -69c-124 0 -194 93 -194 215c0 162 106 294 251 294c83 0 127 -37 145 -69l62 293h115zM268 398c-94 0 -144 -101 -144 -189
c0 -71 37 -119 104 -119c78 0 142 79 142 195c0 66 -35 113 -102 113z" />
    <glyph glyph-name="e" unicode="e" horiz-adv-x="534" 
d="M133 297h234c0 2 1 10 1 15c0 42 -25 93 -99 93c-73 0 -119 -51 -136 -108zM467 212h-347c-1 -5 -1 -7 -1 -11c0 -69 48 -117 115 -117c64 0 105 34 124 71l89 -49c-33 -64 -108 -121 -216 -121c-121 0 -223 82 -223 223c0 183 131 294 264 294c134 0 209 -84 209 -201
c0 -33 -7 -67 -14 -89z" />
    <glyph glyph-name="f" unicode="f" horiz-adv-x="349" 
d="M333 387l-107 0.000976562l-82 -387h-117l82 387h-82l21 100h83l19 89c26 125 109 154 183 154c38 0 66 -11 73 -15l-21 -96c0 -0.0527344 -0.0439453 -0.078125 -0.131836 -0.078125c-1.58008 0 -17.2363 8.07715 -41.8682 8.07715c-40 0 -70 -20 -81 -72l-15 -68h107z
" />
    <glyph glyph-name="g" unicode="g" horiz-adv-x="573" 
d="M371 290c0 54 -35 106 -106 106c-79 0 -139 -61 -139 -159c0 -66 37 -115 108 -115c79 0 137 64 137 168zM-49 -23l105 23c0 -72 52 -105 109 -105c86 0 135 55 156 148l8 36c-20 -28 -63 -53 -121 -53c-124 0 -198 88 -198 203c0 150 103 268 247 268
c73 0 124 -30 147 -70l12 60h115l-92 -443c-27 -128 -103 -249 -274 -249c-145 0 -214 93 -214 182z" />
    <glyph glyph-name="h" unicode="h" horiz-adv-x="569" 
d="M426 0h-115l62 288c2 11 4 22 4 31c0 49 -29 79 -82 79c-66 0 -104 -56 -117 -115l-61 -283h-115l153 724h116l-59 -277c33 38 81 54 133 54c95 0 151 -60 151 -149c0 -18 -2 -39 -5 -51z" />
    <glyph glyph-name="i" unicode="i" horiz-adv-x="268" 
d="M121 653c0 46 40 82 83 82c40 0 68 -29 68 -66c0 -48 -41 -83 -83 -83c-40 0 -68 30 -68 67zM115 0h-115l104 487h115z" />
    <glyph glyph-name="j" unicode="j" horiz-adv-x="267" 
d="M-8 -43l114 530h114l-118 -557c-19 -88 -78 -135 -156 -135c-46 0 -75 15 -80 19l19 90c6 -2 23 -7 42 -7c38 0 56 16 65 60zM123 653c0 46 40 82 83 82c40 0 68 -29 68 -66c0 -48 -42 -83 -83 -83c-40 0 -68 30 -68 67z" />
    <glyph glyph-name="k" unicode="k" horiz-adv-x="545" 
d="M331 0l-100 211l-86 -72l-29 -139h-114l153 724h115l-90 -421l216 184h164l-241 -202l140 -285h-128z" />
    <glyph glyph-name="l" unicode="l" horiz-adv-x="266" 
d="M115 0h-115l154 724h115z" />
    <glyph glyph-name="m" unicode="m" horiz-adv-x="853" 
d="M414 0h-115l62 295c2 10 3 21 3 30c0 43 -24 74 -77 74c-59 0 -95 -45 -109 -109l-62 -290h-114l85 403c10 46 11 80 11 84h112c0 -7 -1 -30 -4 -49c34 42 80 63 137 63c60 0 104 -31 125 -76c45 58 106 76 165 76c82 0 147 -57 147 -148c0 -18 -2 -33 -5 -47l-65 -306
h-115l63 295c2 10 3 19 3 28c0 44 -24 76 -77 76c-59 0 -95 -47 -108 -109z" />
    <glyph glyph-name="n" unicode="n" horiz-adv-x="569" 
d="M426 0h-115l62 288c2 11 4 22 4 31c0 49 -29 79 -82 79c-66 0 -104 -56 -117 -115l-61 -283h-115l85 403c10 46 11 80 11 84h112c0 -6 -1 -32 -5 -51c35 47 90 65 144 65c91 0 147 -62 147 -151c0 -16 -2 -37 -6 -54z" />
    <glyph glyph-name="o" unicode="o" horiz-adv-x="551" 
d="M270 398c-78 0 -146 -72 -146 -183c0 -77 45 -126 111 -126c72 0 146 63 146 184c0 77 -42 124 -111 125zM498 277c0 -161 -113 -292 -269 -292c-137 0 -221 101 -221 226c0 170 120 291 270 291c140 0 220 -100 220 -225z" />
    <glyph glyph-name="p" unicode="p" horiz-adv-x="581" 
d="M299 396c-79 0 -146 -73 -146 -183c0 -79 44 -123 110 -123c70 0 147 66 147 186c0 78 -44 120 -111 120zM195 434c31 40 87 65 145 65c126 0 187 -92 187 -208c0 -173 -106 -304 -255 -304c-70 0 -128 33 -154 79l-54 -256h-114l126 593c10 46 11 80 11 84h112
c0 -6 -1 -34 -4 -53z" />
    <glyph glyph-name="q" unicode="q" horiz-adv-x="574" 
d="M530 487l-144 -677h-115l49 230c-29 -29 -70 -49 -121 -49c-122 0 -194 97 -194 215c0 162 106 293 252 293c85 0 130 -38 148 -69l12 57h113zM265 397c-94 0 -145 -99 -145 -188c0 -70 39 -119 109 -119c79 0 141 78 141 191c0 70 -35 116 -105 116z" />
    <glyph glyph-name="r" unicode="r" horiz-adv-x="383" 
d="M360 369c-14 3 -28 5 -41 5c-68 0 -130 -36 -154 -146l-49 -228h-114l85 403c10 46 11 80 11 84h112c0 -14 -2 -48 -7 -67c37 56 100 72 147 72c13 0 25 -1 35 -3z" />
    <glyph glyph-name="s" unicode="s" horiz-adv-x="443" 
d="M-13 151l100 19c0 -51 30 -94 89 -94c47 0 69 28 69 56c0 20 -12 39 -41 52l-62 27c-66 29 -96 74 -96 131c0 84 71 160 182 160c138 0 175 -92 178 -145l-101 -21c-2 30 -19 76 -83 76c-41 0 -66 -25 -66 -55c0 -24 13 -39 34 -48l64 -28c71 -31 105 -81 105 -139
c0 -70 -56 -157 -184 -157c-152 0 -188 108 -188 166z" />
    <glyph glyph-name="t" unicode="t" horiz-adv-x="357" 
d="M57 110c0 12 2 33 8 59l46 215h-88l22 103h18c56 0 86 30 97 79l15 70h105l-33 -149h97l-22 -103h-96l-48 -227c-2 -8 -3 -16 -3 -22c0 -23 13 -41 53 -41c12 0 22 1 34 3l-19 -93c-9 -4 -29 -10 -58 -10c-79 0 -128 44 -128 116z" />
    <glyph glyph-name="u" unicode="u" horiz-adv-x="557" 
d="M93 487h116l-60 -280c-3 -14 -5 -27 -5 -39c0 -46 23 -79 80 -79c62 0 100 53 113 114l60 284h114l-78 -376c-6 -30 -11 -58 -11 -89c0 -6 0 -11 1 -22h-112c-1 6 -2 16 -2 29c0 7 0 15 1 24c-28 -43 -80 -64 -125 -64c-102 0 -159 66 -159 159c0 17 2 35 6 54z" />
    <glyph glyph-name="v" unicode="v" horiz-adv-x="500" 
d="M518 487l-285 -487h-114l-86 487h119l48 -348l189 348h129z" />
    <glyph glyph-name="w" unicode="w" horiz-adv-x="788" 
d="M351 487h122l41 -335l165 335h122l-254 -487h-116l-44 348l-181 -348h-120l-48 487h111l28 -334z" />
    <glyph glyph-name="x" unicode="x" horiz-adv-x="507" 
d="M216 161l-143 -161h-143l234 249l-127 238h126c19 -38 58 -118 78 -155l137 155h144c-51 -54 -178 -190 -229 -243c29 -55 101 -190 131 -244h-126z" />
    <glyph glyph-name="y" unicode="y" horiz-adv-x="515" 
d="M95 -190h-129l175 270l-113 407h123l75 -288l175 288h132z" />
    <glyph glyph-name="z" unicode="z" horiz-adv-x="483" 
d="M368 0h-400l22 102l303 284h-235l22 101h385l-22 -100l-307 -285h253z" />
    <glyph glyph-name="braceleft" unicode="{" horiz-adv-x="362" 
d="M24 272l21 101c56 0 112 25 126 95l29 142c29 141 95 189 218 189h33l-19 -89h-22c-66 0 -98 -27 -113 -97l-36 -166c-14 -66 -57 -114 -127 -125c46 -13 76 -48 76 -99c0 -11 -2 -22 -4 -33l-31 -150c-3 -14 -4 -26 -4 -36c0 -48 27 -69 78 -69h20l-19 -88h-22
c-102 0 -155 48 -155 137c0 17 2 37 7 58l29 135c2 10 3 19 3 27c0 52 -42 68 -88 68z" />
    <glyph glyph-name="bar" unicode="|" horiz-adv-x="272" 
d="M76 -153h-98l202 952h98z" />
    <glyph glyph-name="braceright" unicode="}" horiz-adv-x="364" 
d="M325 372l-21 -101c-52 0 -110 -20 -126 -94l-30 -141c-28 -131 -102 -189 -225 -189h-25l19 88h21c64 0 102 38 116 103l35 166c13 63 60 107 128 121c-50 12 -78 48 -78 95c0 9 1 19 3 29l34 163c3 14 4 27 4 38c0 42 -23 60 -75 60h-24l19 89h28c94 0 150 -42 150 -131
c0 -17 -2 -36 -6 -56l-32 -144c-2 -10 -3 -19 -3 -27c0 -50 39 -69 88 -69z" />
    <glyph glyph-name="asciitilde" unicode="~" horiz-adv-x="647" 
d="M501 360l66 -53c-37 -65 -94 -99 -158 -99c-35 0 -67 9 -102 28l-47 25c-18 10 -35 14 -52 14c-35 0 -67 -20 -92 -54l-66 53c37 64 94 100 159 100c33 0 66 -8 101 -27l46 -25c17 -9 36 -15 52 -15c37 0 69 15 93 53z" />
    <glyph glyph-name="uni00A0" unicode="&#xa0;" horiz-adv-x="261" 
 />
    <glyph glyph-name="exclamdown" unicode="&#xa1;" horiz-adv-x="255" 
d="M161 285l-75 -499h-143l135 499h83zM220 437c0 -44 -36 -81 -81 -81c-40 0 -66 29 -66 65c0 45 38 81 79 81c40 0 68 -28 68 -65z" />
    <glyph glyph-name="cent" unicode="&#xa2;" horiz-adv-x="553" 
d="M160 0l19 92c-87 28 -141 106 -141 201c0 154 110 260 241 271l18 84h90l-19 -91c83 -22 121 -85 134 -141l-103 -31c-6 29 -23 55 -53 70l-58 -275c49 8 77 40 95 73l93 -36c-33 -69 -102 -135 -209 -138l-17 -79h-90zM150 295c0 -47 19 -82 51 -100l56 266
c-58 -16 -107 -71 -107 -166z" />
    <glyph glyph-name="sterling" unicode="&#xa3;" horiz-adv-x="597" 
d="M57 273l20 95h71c-5 23 -9 47 -9 75c0 120 82 220 218 220c125 0 187 -72 187 -165c0 -13 -2 -26 -4 -30l-108 -14c2 7 3 17 3 27c0 44 -27 82 -83 82c-57 0 -101 -38 -101 -117c0 -25 5 -52 10 -78h184l-20 -95h-154c-5 -73 -47 -139 -120 -170h184c62 0 98 44 106 97
l103 -20c-19 -110 -98 -180 -204 -180h-345l23 113c90 21 135 89 140 160h-101z" />
    <glyph glyph-name="currency" unicode="&#xa4;" horiz-adv-x="599" 
d="M74 242c0 42 12 81 33 114l-74 75l72 71l74 -76c32 19 70 30 110 30c38 0 75 -10 106 -28l73 74l71 -71l-70 -72c22 -33 35 -74 35 -117s-13 -83 -34 -116l69 -70l-70 -70l-72 72c-32 -19 -69 -29 -108 -29c-41 0 -79 11 -112 31l-73 -74l-71 70l73 74
c-21 32 -32 71 -32 112zM173 242c0 -68 50 -117 116 -117s115 49 115 117s-49 117 -115 117s-116 -49 -116 -117z" />
    <glyph glyph-name="yen" unicode="&#xa5;" horiz-adv-x="603" 
d="M67 302l18 83h115l-102 263h129l87 -252l187 252h133l-208 -263h118l-18 -83h-174l-16 -74h175l-19 -85h-173l-30 -143h-115l30 143h-171l18 85h171l15 74h-170z" />
    <glyph glyph-name="brokenbar" unicode="&#xa6;" horiz-adv-x="272" 
d="M194 400h-98l84 399h98zM76 -154h-98l85 399h98z" />
    <glyph glyph-name="section" unicode="&#xa7;" 
d="M-1 -4l112 8c-2 -9 -4 -20 -4 -34c0 -52 32 -85 91 -85c48 0 94 32 94 89c0 25 -13 48 -35 64l-91 64c-57 40 -106 86 -106 156c0 82 60 126 111 145c-38 34 -56 76 -56 124c0 122 113 197 222 197c128 0 194 -76 194 -167c0 -13 -1 -26 -4 -39l-113 -9c3 12 4 24 4 34
c0 52 -32 84 -89 84c-50 0 -96 -35 -96 -88c0 -26 13 -47 37 -64l90 -64c56 -40 106 -83 106 -153c0 -83 -60 -130 -110 -149c36 -34 55 -78 55 -122c0 -124 -112 -199 -223 -199c-125 0 -192 75 -192 168c0 12 0 26 3 40zM317 296l-89 64c-30 -14 -56 -42 -56 -80
c0 -24 11 -44 37 -63l89 -64c30 14 56 42 56 80c0 24 -11 44 -37 63z" />
    <glyph glyph-name="dieresis" unicode="&#xa8;" horiz-adv-x="383" 
d="M-26 618c0 38 32 72 72 72c35 0 59 -28 59 -59c0 -41 -37 -71 -74 -71c-33 0 -57 26 -57 58zM177 618c0 38 33 72 72 72c35 0 59 -28 59 -59c0 -41 -37 -71 -73 -71c-34 0 -58 26 -58 58z" />
    <glyph glyph-name="copyright" unicode="&#xa9;" horiz-adv-x="818" 
d="M35 355c0 203 163 369 366 369c204 0 369 -166 369 -369c0 -204 -165 -370 -369 -370c-203 0 -366 166 -366 370zM117 355c0 -166 125 -294 284 -294c160 0 285 128 285 294c0 165 -125 293 -285 293c-159 0 -284 -128 -284 -293zM587 433l-81 -26c-8 36 -35 71 -87 71
c-58 0 -118 -49 -118 -146c0 -61 39 -99 95 -99c51 0 80 32 97 64l74 -31c-34 -69 -92 -114 -180 -114c-98 0 -175 71 -175 178c0 137 98 228 213 228c104 0 150 -66 162 -125z" />
    <glyph glyph-name="ordfeminine" unicode="&#xaa;" horiz-adv-x="459" 
d="M238 577c-61 0 -94 -65 -94 -122c0 -49 26 -79 69 -79c50 0 92 48 92 126c0 46 -24 75 -67 75zM340 649h87l-56 -267c-4 -21 -6 -44 -6 -59v-18h-83c-1 11 -1 13 -1 18c0 6 0 13 1 24c-16 -24 -47 -48 -93 -48c-84 0 -134 68 -134 152c0 116 75 206 176 206
c63 0 91 -29 100 -48z" />
    <glyph glyph-name="guillemotleft" unicode="&#xab;" horiz-adv-x="501" 
d="M217 100h-108l-99 196l174 191h119l-180 -200zM425 100h-108l-99 196l174 191h119l-180 -200z" />
    <glyph glyph-name="logicalnot" unicode="&#xac;" horiz-adv-x="623" 
d="M533 142h-101v195h-377v97h478v-292z" />
    <glyph glyph-name="uni00AD" unicode="&#xad;" horiz-adv-x="362" 
d="M297 241h-282l22 103h281z" />
    <glyph glyph-name="registered" unicode="&#xae;" horiz-adv-x="818" 
d="M35 355c0 203 163 369 366 369c204 0 369 -166 369 -369c0 -204 -165 -370 -369 -370c-203 0 -366 166 -366 370zM117 355c0 -166 125 -294 284 -294c160 0 285 128 285 294c0 165 -125 293 -285 293c-159 0 -284 -128 -284 -293zM445 157l-51 142h-35l-30 -143h-85
l85 400h140c70 0 116 -53 116 -113c0 -68 -46 -121 -111 -137l58 -149h-87zM373 369h47c46 0 80 24 80 70c0 29 -19 46 -56 46h-45z" />
    <glyph glyph-name="macron" unicode="&#xaf;" horiz-adv-x="328" 
d="M243 577h-277l19 90h277z" />
    <glyph glyph-name="degree" unicode="&#xb0;" horiz-adv-x="394" 
d="M204 429c39 0 78 32 78 85c0 37 -24 62 -63 62s-77 -34 -77 -84c0 -37 23 -63 62 -63zM196 342c-85 0 -146 64 -146 144c0 100 83 177 178 177c84 0 146 -64 146 -145c0 -102 -89 -176 -178 -176z" />
    <glyph glyph-name="plusminus" unicode="&#xb1;" horiz-adv-x="604" 
d="M341 311v-128h-99v128h-177v94h177v129h99v-129h178v-94h-178zM65 47v96h454v-96h-454z" />
    <glyph glyph-name="twosuperior" unicode="&#xb2;" horiz-adv-x="382" 
d="M168 514l64 28c36 16 52 34 52 59c0 19 -14 42 -45 42c-37 0 -60 -24 -60 -69l-84 3c0 85 60 139 147 139c88 0 133 -51 133 -110c0 -60 -40 -100 -102 -127l-76 -33c-20 -9 -27 -24 -28 -27h171l-16 -76h-278c5 80 46 138 122 171z" />
    <glyph glyph-name="threesuperior" unicode="&#xb3;" horiz-adv-x="427" 
d="M198 509l-27 64l111 62h-163l16 74h272l-17 -85l-108 -59c48 -10 82 -48 82 -99c0 -68 -61 -130 -153 -130c-82 0 -141 49 -141 119c0 5 1 12 2 16l82 6c-1 -5 -1 -8 -1 -10c0 -29 23 -56 58 -56c38 0 63 20 63 57c0 29 -24 46 -51 46c-10 0 -18 -2 -25 -5z" />
    <glyph glyph-name="acute" unicode="&#xb4;" horiz-adv-x="276" 
d="M220 696l-162 -148h-100l117 148h145z" />
    <glyph glyph-name="mu" unicode="&#xb5;" horiz-adv-x="589" 
d="M58 -190v677h117v-286c0 -60 28 -111 98 -111c67 0 102 45 102 109v288h116v-398c0 -45 4 -81 5 -89h-111c-2 10 -4 36 -4 55c-26 -47 -85 -69 -138 -69c-26 0 -49 5 -69 14v-190h-116z" />
    <glyph glyph-name="paragraph" unicode="&#xb6;" horiz-adv-x="649" 
d="M393 616l-173 -813h-95l108 507h-9c-97 0 -169 71 -169 165c0 153 142 234 278 234h366l-19 -93h-98l-172 -813h-95l172 813h-94z" />
    <glyph glyph-name="periodcentered" unicode="&#xb7;" horiz-adv-x="278" 
d="M50 290c0 45 39 86 87 86c43 0 71 -32 71 -69c0 -50 -40 -87 -86 -87c-43 0 -72 32 -72 70z" />
    <glyph glyph-name="cedilla" unicode="&#xb8;" horiz-adv-x="286" 
d="M90 13h89l-74 -65c47 -6 73 -38 73 -75c0 -49 -43 -96 -121 -96c-74 0 -117 47 -128 69l54 40c7 -14 27 -46 72 -46c23 0 43 10 43 31c0 20 -18 31 -40 31c-2 0 -10 0 -17 -1l-23 46z" />
    <glyph glyph-name="onesuperior" unicode="&#xb9;" horiz-adv-x="298" 
d="M190 343h-91l53 238h-85l12 59c55 2 95 34 110 69h80z" />
    <glyph glyph-name="ordmasculine" unicode="&#xba;" horiz-adv-x="441" 
d="M240 577c-53 0 -95 -50 -95 -119c0 -51 30 -82 72 -82c46 0 96 40 96 120c0 51 -28 81 -73 81zM403 500c0 -112 -79 -205 -191 -205c-96 0 -157 70 -157 159c0 121 86 205 192 205c98 0 156 -71 156 -159z" />
    <glyph glyph-name="guillemotright" unicode="&#xbb;" horiz-adv-x="506" 
d="M46 487h108l99 -196l-174 -191h-119l181 200zM262 487h108l99 -196l-174 -191h-119l181 200z" />
    <glyph glyph-name="onequarter" unicode="&#xbc;" horiz-adv-x="805" 
d="M193 282h-91l53 238h-85l12 59c55 2 95 34 110 69h80zM377 74l19 96l204 196h101l-47 -219h63l-16 -73h-62c0 -1 -6 -26 -16 -74h-89l15 74h-172zM564 147l28 122l-127 -122h99zM721 648l-598 -648h-110l599 648h109z" />
    <glyph glyph-name="onehalf" unicode="&#xbd;" horiz-adv-x="829" 
d="M193 282h-91l53 238h-85l12 59c55 2 95 34 110 69h80zM721 648l-598 -648h-110l599 648h109zM554 171l64 28c36 16 52 34 52 59c0 19 -14 42 -45 42c-37 0 -60 -24 -60 -69l-84 3c0 85 60 139 147 139c88 0 133 -51 133 -110c0 -60 -40 -100 -102 -127l-76 -33
c-20 -9 -27 -24 -28 -27h171l-16 -76h-278c5 80 46 138 122 171z" />
    <glyph glyph-name="threequarters" unicode="&#xbe;" horiz-adv-x="902" 
d="M178 448l-27 64l111 62h-163l16 74h272l-17 -85l-108 -59c48 -10 82 -48 82 -99c0 -68 -61 -130 -153 -130c-82 0 -141 49 -141 119c0 5 1 12 2 16l82 6c-1 -5 -1 -8 -1 -10c0 -29 23 -56 58 -56c38 0 63 20 63 57c0 29 -24 46 -51 46c-10 0 -18 -2 -25 -5zM474 74l19 96
l204 196h101l-47 -219h63l-16 -73h-62c0 -1 -6 -26 -16 -74h-89l15 74h-172zM661 147l28 122l-127 -122h99zM819 648l-598 -648h-110l599 648h109z" />
    <glyph glyph-name="questiondown" unicode="&#xbf;" horiz-adv-x="451" 
d="M189 286h97c-3 -71 -28 -141 -113 -190l-54 -31c-45 -25 -66 -61 -66 -103c0 -44 28 -86 96 -86c87 0 128 69 128 142l111 -13c-3 -134 -101 -234 -248 -234c-138 0 -208 85 -208 173c0 101 58 163 137 208l50 29c46 26 66 61 70 105zM326 437c0 -44 -35 -81 -80 -81
c-41 0 -67 29 -67 65c0 45 39 81 80 81c40 0 67 -28 67 -65z" />
    <glyph glyph-name="Agrave" unicode="&#xc0;" horiz-adv-x="668" 
d="M477 0l-27 178h-285l-102 -178h-135l419 709h135l118 -709h-123zM390 574l-162 -285h205zM371 759l-112 124h138l75 -124h-101z" />
    <glyph glyph-name="Aacute" unicode="&#xc1;" horiz-adv-x="668" 
d="M477 0l-27 178h-285l-102 -178h-135l419 709h135l118 -709h-123zM390 574l-162 -285h205zM631 883l-162 -124h-114l123 124h153z" />
    <glyph glyph-name="Acircumflex" unicode="&#xc2;" horiz-adv-x="668" 
d="M477 0l-27 178h-285l-102 -178h-135l419 709h135l118 -709h-123zM390 574l-162 -285h205zM342 759h-108l141 124h129l92 -124h-100l-64 64z" />
    <glyph glyph-name="Atilde" unicode="&#xc3;" horiz-adv-x="668" 
d="M477 0l-27 178h-285l-102 -178h-135l419 709h135l118 -709h-123zM390 574l-162 -285h205zM602 886c-16 -98 -61 -132 -119 -132c-29 0 -53 12 -72 24l-8 5c-14 9 -27 17 -42 17c-19 0 -33 -12 -38 -43h-78c10 96 63 131 121 131c29 0 53 -11 71 -23l8 -6
c14 -9 26 -17 41 -17c19 0 32 13 38 44h78z" />
    <glyph glyph-name="Adieresis" unicode="&#xc4;" horiz-adv-x="668" 
d="M206 814c0 40 32 74 74 74c35 0 59 -27 59 -59c0 -44 -35 -74 -73 -74c-35 0 -60 25 -60 59zM514 814c0 40 32 74 74 74c35 0 59 -27 59 -59c0 -44 -35 -74 -73 -74c-35 0 -60 25 -60 59zM477 0l-27 178h-285l-102 -178h-135l419 709h135l118 -709h-123zM390 574
l-162 -285h205z" />
    <glyph glyph-name="Aring" unicode="&#xc5;" horiz-adv-x="668" 
d="M390 574l-162 -285h205zM424 802c-26 0 -52 -21 -52 -51c0 -26 18 -42 44 -42c27 0 52 20 52 51c0 25 -18 42 -44 42zM298 743c0 75 64 131 133 131c64 0 113 -47 113 -108c0 -42 -22 -79 -55 -103l111 -663h-123l-27 178h-285l-102 -178h-135l398 673
c-17 19 -28 42 -28 70z" />
    <glyph glyph-name="AE" unicode="&#xc6;" horiz-adv-x="1039" 
d="M615 112h315l-24 -112h-435l38 177h-278l-151 -177h-154l618 709h512l-24 -112h-314l-40 -188h285l-23 -109h-285zM319 280h212l70 330z" />
    <glyph glyph-name="Ccedilla" unicode="&#xc7;" horiz-adv-x="719" 
d="M367 -14l-43 -38c47 -6 73 -38 73 -75c0 -49 -43 -96 -121 -96c-74 0 -117 47 -128 69l54 40c7 -14 27 -46 72 -46c23 0 43 10 43 31c0 20 -18 31 -40 31c-2 0 -6 0 -11 -1h-6l-23 46l47 43c-150 24 -251 148 -251 314c0 271 193 420 383 420c184 0 272 -112 294 -227
l-115 -35c-16 77 -74 149 -188 149c-148 0 -251 -132 -251 -300c0 -129 74 -213 195 -213c101 0 168 60 206 145l106 -43c-47 -111 -144 -204 -296 -214z" />
    <glyph glyph-name="Egrave" unicode="&#xc8;" horiz-adv-x="578" 
d="M357 759l-112 124h138l75 -124h-101zM445 0h-435l150 709h435l-24 -112h-314l-40 -188h285l-24 -109h-284l-41 -188h315z" />
    <glyph glyph-name="Eacute" unicode="&#xc9;" horiz-adv-x="578" 
d="M582 883l-162 -124h-114l123 124h153zM445 0h-435l150 709h435l-24 -112h-314l-40 -188h285l-24 -109h-284l-41 -188h315z" />
    <glyph glyph-name="Ecircumflex" unicode="&#xca;" horiz-adv-x="578" 
d="M312 759h-108l141 124h129l92 -124h-100l-64 64zM445 0h-435l150 709h435l-24 -112h-314l-40 -188h285l-24 -109h-284l-41 -188h315z" />
    <glyph glyph-name="Edieresis" unicode="&#xcb;" horiz-adv-x="578" 
d="M217 814c0 40 33 73 74 73c35 0 58 -26 58 -58c0 -43 -34 -73 -72 -73c-35 0 -60 24 -60 58zM439 814c0 40 33 73 73 73c35 0 59 -26 59 -58c0 -43 -34 -73 -72 -73c-35 0 -60 24 -60 58zM445 0h-435l150 709h435l-24 -112h-314l-40 -188h285l-24 -109h-284l-41 -188h315
z" />
    <glyph glyph-name="Igrave" unicode="&#xcc;" horiz-adv-x="292" 
d="M132 0h-122l150 709h122zM190 759l-112 124h138l75 -124h-101z" />
    <glyph glyph-name="Iacute" unicode="&#xcd;" horiz-adv-x="292" 
d="M132 0h-122l150 709h122zM450 883l-162 -124h-114l123 124h153z" />
    <glyph glyph-name="Icircumflex" unicode="&#xce;" horiz-adv-x="292" 
d="M132 0h-122l150 709h122zM156 759h-108l141 124h129l92 -124h-100l-64 64z" />
    <glyph glyph-name="Idieresis" unicode="&#xcf;" horiz-adv-x="292" 
d="M132 0h-122l150 709h122zM90 814c0 38 31 69 69 69c33 0 55 -25 55 -54c0 -41 -32 -69 -68 -69c-32 0 -56 23 -56 54zM262 814c0 38 30 69 69 69c32 0 55 -25 55 -54c0 -41 -32 -69 -69 -69c-32 0 -55 23 -55 54z" />
    <glyph glyph-name="Eth" unicode="&#xd0;" horiz-adv-x="710" 
d="M12 316l19 93h77l63 300h203c187 0 303 -116 303 -290c0 -274 -188 -419 -379 -419h-276l66 316h-76zM164 111h136c119 0 255 100 255 303c0 117 -75 186 -196 186h-91l-41 -191h150l-19 -93h-151z" />
    <glyph glyph-name="Ntilde" unicode="&#xd1;" horiz-adv-x="744" 
d="M648 886c-16 -98 -61 -132 -119 -132c-29 0 -53 12 -72 24l-8 5c-14 9 -27 17 -42 17c-19 0 -33 -12 -38 -43h-78c10 96 63 131 121 131c29 0 53 -11 71 -23l8 -6c14 -9 26 -17 41 -17c19 0 32 13 38 44h78zM583 0h-122l-218 534l-113 -534h-120l150 709h140l205 -509
l108 509h121z" />
    <glyph glyph-name="Ograve" unicode="&#xd2;" horiz-adv-x="756" 
d="M402 759l-112 124h138l75 -124h-101zM33 299c0 275 191 425 379 425s310 -126 310 -314c0 -275 -190 -425 -378 -425c-187 0 -311 127 -311 314zM600 401c0 132 -79 210 -194 210c-148 0 -249 -135 -250 -303c0 -132 79 -210 194 -210c148 0 248 136 250 303z" />
    <glyph glyph-name="Oacute" unicode="&#xd3;" horiz-adv-x="756" 
d="M654 883l-162 -124h-114l123 124h153zM33 299c0 275 191 425 379 425s310 -126 310 -314c0 -275 -190 -425 -378 -425c-187 0 -311 127 -311 314zM600 401c0 132 -79 210 -194 210c-148 0 -249 -135 -250 -303c0 -132 79 -210 194 -210c148 0 248 136 250 303z" />
    <glyph glyph-name="Ocircumflex" unicode="&#xd4;" horiz-adv-x="756" 
d="M365 759h-108l141 124h129l92 -124h-100l-64 64zM33 299c0 275 191 425 379 425s310 -126 310 -314c0 -275 -190 -425 -378 -425c-187 0 -311 127 -311 314zM600 401c0 132 -79 210 -194 210c-148 0 -249 -135 -250 -303c0 -132 79 -210 194 -210c148 0 248 136 250 303z
" />
    <glyph glyph-name="Otilde" unicode="&#xd5;" horiz-adv-x="756" 
d="M636 886c-16 -98 -61 -132 -119 -132c-29 0 -53 12 -72 24l-8 5c-14 9 -27 17 -42 17c-19 0 -33 -12 -38 -43h-78c10 96 63 131 121 131c29 0 53 -11 71 -23l8 -6c14 -9 26 -17 41 -17c19 0 32 13 38 44h78zM33 299c0 275 191 425 379 425s310 -126 310 -314
c0 -275 -190 -425 -378 -425c-187 0 -311 127 -311 314zM600 401c0 132 -79 210 -194 210c-148 0 -249 -135 -250 -303c0 -132 79 -210 194 -210c148 0 248 136 250 303z" />
    <glyph glyph-name="Odieresis" unicode="&#xd6;" horiz-adv-x="756" 
d="M215 814c0 40 32 74 74 74c35 0 59 -27 59 -59c0 -44 -35 -74 -73 -74c-35 0 -60 25 -60 59zM551 814c0 40 32 74 74 74c35 0 59 -27 59 -59c0 -44 -35 -74 -73 -74c-35 0 -60 25 -60 59zM33 299c0 275 191 425 379 425s310 -126 310 -314c0 -275 -190 -425 -378 -425
c-187 0 -311 127 -311 314zM600 401c0 132 -79 210 -194 210c-148 0 -249 -135 -250 -303c0 -132 79 -210 194 -210c148 0 248 136 250 303z" />
    <glyph glyph-name="multiply" unicode="&#xd7;" horiz-adv-x="558" 
d="M112 51l-69 69l168 172l-167 171l69 69l166 -171l166 171l69 -69l-167 -171l168 -172l-69 -69l-167 171z" />
    <glyph glyph-name="Oslash" unicode="&#xd8;" horiz-adv-x="756" 
d="M33 299c0 275 191 425 379 425c76 0 145 -22 193 -59l75 81l71 -64l-80 -86c33 -51 51 -114 51 -186c0 -275 -190 -425 -378 -425c-75 0 -140 20 -190 56l-72 -77l-71 64l76 82c-35 51 -54 115 -54 189zM156 308c0 -40 7 -74 20 -103l346 371c-32 23 -71 35 -116 35
c-148 0 -249 -135 -250 -303zM600 401c0 37 -6 70 -18 99l-345 -370c31 -21 69 -32 113 -32c148 0 248 136 250 303z" />
    <glyph glyph-name="Ugrave" unicode="&#xd9;" horiz-adv-x="671" 
d="M385 759l-112 124h138l75 -124h-101zM550 709h121l-103 -489c-32 -152 -138 -235 -276 -235c-145 0 -241 83 -241 219c0 25 3 47 8 72l91 433h118l-91 -442c-4 -18 -6 -34 -6 -50c0 -71 40 -117 129 -117c79 0 132 48 151 137z" />
    <glyph glyph-name="Uacute" unicode="&#xda;" horiz-adv-x="671" 
d="M611 883l-162 -124h-114l123 124h153zM550 709h121l-103 -489c-32 -152 -138 -235 -276 -235c-145 0 -241 83 -241 219c0 25 3 47 8 72l91 433h118l-91 -442c-4 -18 -6 -34 -6 -50c0 -71 40 -117 129 -117c79 0 132 48 151 137z" />
    <glyph glyph-name="Ucircumflex" unicode="&#xdb;" horiz-adv-x="671" 
d="M342 759h-108l141 124h129l92 -124h-100l-64 64zM550 709h121l-103 -489c-32 -152 -138 -235 -276 -235c-145 0 -241 83 -241 219c0 25 3 47 8 72l91 433h118l-91 -442c-4 -18 -6 -34 -6 -50c0 -71 40 -117 129 -117c79 0 132 48 151 137z" />
    <glyph glyph-name="Udieresis" unicode="&#xdc;" horiz-adv-x="671" 
d="M244 814c0 40 32 74 74 74c35 0 59 -27 59 -59c0 -44 -35 -74 -73 -74c-35 0 -60 25 -60 59zM470 814c0 40 32 74 74 74c35 0 59 -27 59 -59c0 -44 -35 -74 -73 -74c-35 0 -60 25 -60 59zM550 709h121l-103 -489c-32 -152 -138 -235 -276 -235c-145 0 -241 83 -241 219
c0 25 3 47 8 72l91 433h118l-91 -442c-4 -18 -6 -34 -6 -50c0 -71 40 -117 129 -117c79 0 132 48 151 137z" />
    <glyph glyph-name="Yacute" unicode="&#xdd;" horiz-adv-x="619" 
d="M246 302l-159 407h127l110 -292l211 292h144l-314 -411l-62 -298h-121zM585 883l-162 -124h-114l123 124h153z" />
    <glyph glyph-name="Thorn" unicode="&#xde;" horiz-adv-x="589" 
d="M340 470h-109l-47 -218h118c84 0 145 44 146 126c0 55 -36 92 -108 92zM130 0h-120l150 709h121l-29 -133h112c125 0 207 -79 207 -189c0 -148 -115 -240 -268 -240h-141z" />
    <glyph glyph-name="germandbls" unicode="&#xdf;" horiz-adv-x="587" 
d="M378 330c0 -17 13 -26 31 -39l26 -20c42 -33 75 -75 75 -127c0 -65 -49 -160 -175 -160c-96 0 -157 61 -157 137c0 8 0 16 2 24l99 11c-2 -5 -2 -11 -2 -17c0 -28 13 -64 62 -64c43 0 60 31 60 54c0 25 -13 37 -37 55l-25 19c-39 29 -75 67 -75 115c0 69 43 108 84 129
l28 14c42 21 70 44 70 86c0 35 -31 76 -98 76c-53 0 -109 -32 -129 -128l-104 -495h-115l108 514c31 148 135 210 246 210c134 0 207 -81 207 -168c0 -98 -65 -146 -121 -172l-26 -12c-19 -9 -34 -20 -34 -42z" />
    <glyph glyph-name="agrave" unicode="&#xe0;" horiz-adv-x="574" 
d="M268 398c-94 0 -144 -101 -144 -189c0 -71 37 -119 104 -119c78 0 142 79 142 195c0 66 -35 113 -102 113zM418 487h113l-79 -371c-6 -30 -10 -60 -10 -92c0 -5 0 -13 1 -24h-108c-1 9 -1 14 -1 20c0 12 0 18 2 40c-28 -36 -73 -69 -134 -69c-124 0 -194 93 -194 215
c0 162 106 294 251 294c87 0 130 -40 146 -71zM255 548l-99 148h132l57 -148h-90z" />
    <glyph glyph-name="aacute" unicode="&#xe1;" horiz-adv-x="574" 
d="M268 398c-94 0 -144 -101 -144 -189c0 -71 37 -119 104 -119c78 0 142 79 142 195c0 66 -35 113 -102 113zM418 487h113l-79 -371c-6 -30 -10 -60 -10 -92c0 -5 0 -13 1 -24h-108c-1 9 -1 14 -1 20c0 12 0 18 2 40c-28 -36 -73 -69 -134 -69c-124 0 -194 93 -194 215
c0 162 106 294 251 294c87 0 130 -40 146 -71zM503 696l-162 -148h-100l117 148h145z" />
    <glyph glyph-name="acircumflex" unicode="&#xe2;" horiz-adv-x="574" 
d="M232 549h-103l138 143h123l76 -143h-95l-53 77zM268 398c-94 0 -144 -101 -144 -189c0 -71 37 -119 104 -119c78 0 142 79 142 195c0 66 -35 113 -102 113zM418 487h113l-79 -371c-6 -30 -10 -60 -10 -92c0 -5 0 -13 1 -24h-108c-1 9 -1 14 -1 20c0 12 0 18 2 40
c-28 -36 -73 -69 -134 -69c-124 0 -194 93 -194 215c0 162 106 294 251 294c87 0 130 -40 146 -71z" />
    <glyph glyph-name="atilde" unicode="&#xe3;" horiz-adv-x="574" 
d="M268 398c-94 0 -144 -101 -144 -189c0 -71 37 -119 104 -119c78 0 142 79 142 195c0 66 -35 113 -102 113zM418 487h113l-79 -371c-6 -30 -10 -60 -10 -92c0 -5 0 -13 1 -24h-108c-1 9 -1 14 -1 20c0 12 0 18 2 40c-28 -36 -73 -69 -134 -69c-124 0 -194 93 -194 215
c0 162 106 294 251 294c87 0 130 -40 146 -71zM217 555h-79c11 98 65 135 124 135c30 0 54 -13 71 -24l6 -4c13 -9 26 -18 42 -18c21 0 34 15 40 44h78c-15 -99 -63 -135 -121 -135c-29 0 -52 12 -70 24l-8 5c-15 9 -26 17 -43 17c-19 0 -34 -13 -40 -44z" />
    <glyph glyph-name="adieresis" unicode="&#xe4;" horiz-adv-x="574" 
d="M151 618c0 38 32 72 72 72c35 0 59 -28 59 -59c0 -41 -37 -71 -74 -71c-33 0 -57 26 -57 58zM354 618c0 38 33 72 72 72c35 0 59 -28 59 -59c0 -41 -37 -71 -73 -71c-34 0 -58 26 -58 58zM268 398c-94 0 -144 -101 -144 -189c0 -71 37 -119 104 -119c78 0 142 79 142 195
c0 66 -35 113 -102 113zM418 487h113l-79 -371c-6 -30 -10 -60 -10 -92c0 -5 0 -13 1 -24h-108c-1 9 -1 14 -1 20c0 12 0 18 2 40c-28 -36 -73 -69 -134 -69c-124 0 -194 93 -194 215c0 162 106 294 251 294c87 0 130 -40 146 -71z" />
    <glyph glyph-name="aring" unicode="&#xe5;" horiz-adv-x="574" 
d="M268 398c-94 0 -144 -101 -144 -189c0 -71 37 -119 104 -119c78 0 142 79 142 195c0 66 -35 113 -102 113zM418 487h113l-79 -371c-6 -30 -10 -60 -10 -92c0 -5 0 -13 1 -24h-108c-1 9 -1 14 -1 20c0 12 0 18 2 40c-28 -36 -73 -69 -134 -69c-124 0 -194 93 -194 215
c0 162 106 294 251 294c87 0 130 -40 146 -71zM326 758c59 0 105 -43 105 -100c0 -65 -58 -120 -122 -120c-59 0 -106 43 -106 99c0 72 62 121 123 121zM272 644c0 -24 16 -39 40 -39c26 0 48 19 48 47c0 22 -16 39 -40 39s-48 -19 -48 -47z" />
    <glyph glyph-name="ae" unicode="&#xe6;" horiz-adv-x="848" 
d="M167 285l134 4c30 1 46 19 46 47c0 35 -25 72 -94 72c-56 0 -97 -32 -110 -77l-97 32c24 78 107 139 214 139c78 0 131 -28 160 -66c46 43 105 66 166 66c134 0 208 -84 208 -201c0 -33 -7 -67 -14 -89h-346c0 -75 40 -128 115 -128c63 0 104 34 124 71l87 -49
c-33 -64 -107 -121 -215 -121c-79 0 -147 34 -184 98c-35 -49 -94 -97 -188 -97c-116 0 -179 64 -179 141c0 92 75 155 173 158zM110 135c0 -39 33 -60 74 -60c53 0 126 37 139 138l-136 -6c-39 -2 -77 -24 -77 -72zM583 405c-74 0 -119 -51 -136 -108h234c0 2 1 10 1 15
c0 42 -25 93 -99 93z" />
    <glyph glyph-name="ccedilla" unicode="&#xe7;" horiz-adv-x="511" 
d="M121 -53l49 45c-102 25 -165 111 -165 220c0 174 125 290 271 290c133 0 191 -85 207 -159l-105 -33c-10 45 -44 87 -110 87c-73 0 -148 -61 -148 -183c0 -77 48 -125 119 -125c65 0 101 41 122 81l96 -39c-34 -71 -101 -138 -206 -145l-43 -38c47 -6 73 -38 73 -75
c0 -49 -43 -96 -121 -96c-74 0 -117 47 -128 69l54 40c7 -14 27 -46 72 -46c23 0 43 10 43 31c0 20 -18 31 -40 31c-7 0 -12 -1 -17 -2z" />
    <glyph glyph-name="egrave" unicode="&#xe8;" horiz-adv-x="534" 
d="M133 297h234c0 2 1 10 1 15c0 42 -25 93 -99 93c-73 0 -119 -51 -136 -108zM467 212h-347c-1 -5 -1 -7 -1 -11c0 -69 48 -117 115 -117c64 0 105 34 124 71l89 -49c-33 -64 -108 -121 -216 -121c-121 0 -223 82 -223 223c0 183 131 294 264 294c134 0 209 -84 209 -201
c0 -33 -7 -67 -14 -89zM267 548l-99 148h132l57 -148h-90z" />
    <glyph glyph-name="eacute" unicode="&#xe9;" horiz-adv-x="534" 
d="M491 696l-162 -148h-100l117 148h145zM133 297h234c0 2 1 10 1 15c0 42 -25 93 -99 93c-73 0 -119 -51 -136 -108zM467 212h-347c-1 -5 -1 -7 -1 -11c0 -69 48 -117 115 -117c64 0 105 34 124 71l89 -49c-33 -64 -108 -121 -216 -121c-121 0 -223 82 -223 223
c0 183 131 294 264 294c134 0 209 -84 209 -201c0 -33 -7 -67 -14 -89z" />
    <glyph glyph-name="ecircumflex" unicode="&#xea;" horiz-adv-x="534" 
d="M231 549h-103l138 143h123l76 -143h-95l-53 77zM133 297h234c0 2 1 10 1 15c0 42 -25 93 -99 93c-73 0 -119 -51 -136 -108zM467 212h-347c-1 -5 -1 -7 -1 -11c0 -69 48 -117 115 -117c64 0 105 34 124 71l89 -49c-33 -64 -108 -121 -216 -121c-121 0 -223 82 -223 223
c0 183 131 294 264 294c134 0 209 -84 209 -201c0 -33 -7 -67 -14 -89z" />
    <glyph glyph-name="edieresis" unicode="&#xeb;" horiz-adv-x="534" 
d="M142 618c0 38 32 72 72 72c35 0 59 -28 59 -59c0 -41 -37 -71 -74 -71c-33 0 -57 26 -57 58zM345 618c0 38 33 72 72 72c35 0 59 -28 59 -59c0 -41 -37 -71 -73 -71c-34 0 -58 26 -58 58zM133 297h234c0 2 1 10 1 15c0 42 -25 93 -99 93c-73 0 -119 -51 -136 -108z
M467 212h-347c-1 -5 -1 -7 -1 -11c0 -69 48 -117 115 -117c64 0 105 34 124 71l89 -49c-33 -64 -108 -121 -216 -121c-121 0 -223 82 -223 223c0 183 131 294 264 294c134 0 209 -84 209 -201c0 -33 -7 -67 -14 -89z" />
    <glyph glyph-name="igrave" unicode="&#xec;" horiz-adv-x="268" 
d="M116 0h-116l104 487h116zM128 548l-99 148h132l57 -148h-90z" />
    <glyph glyph-name="iacute" unicode="&#xed;" horiz-adv-x="268" 
d="M380 696l-162 -148h-100l117 148h145zM116 0h-116l104 487h116z" />
    <glyph glyph-name="icircumflex" unicode="&#xee;" horiz-adv-x="268" 
d="M105 549h-103l138 143h123l76 -143h-95l-53 77zM116 0h-116l104 487h116z" />
    <glyph glyph-name="idieresis" unicode="&#xef;" horiz-adv-x="268" 
d="M116 0h-116l104 487h116zM48 618c0 36 29 68 67 68c33 0 56 -24 56 -55c0 -39 -34 -66 -68 -66s-55 23 -55 53zM204 618c0 36 29 68 67 68c33 0 56 -24 56 -55c0 -39 -34 -66 -68 -66s-55 23 -55 53z" />
    <glyph glyph-name="eth" unicode="&#xf0;" horiz-adv-x="550" 
d="M528 617l-92 -37c42 -58 70 -134 70 -231c0 -215 -112 -364 -280 -364c-141 0 -222 99 -222 217c0 142 103 259 249 259c66 0 119 -27 143 -64c-7 56 -29 104 -61 142l-129 -53l-29 72l92 38c-32 20 -68 34 -105 41l38 91c54 -8 121 -36 179 -86l117 48zM375 250
c0 72 -48 115 -115 115c-72 0 -140 -56 -140 -162c0 -61 39 -117 111 -117c70 0 144 56 144 164z" />
    <glyph glyph-name="ntilde" unicode="&#xf1;" horiz-adv-x="569" 
d="M229 555h-79c11 98 65 135 124 135c30 0 54 -13 71 -24l6 -4c13 -9 26 -18 42 -18c21 0 34 15 40 44h78c-15 -99 -63 -135 -121 -135c-29 0 -52 12 -70 24l-8 5c-15 9 -26 17 -43 17c-19 0 -34 -13 -40 -44zM426 0h-115l62 288c2 11 4 22 4 31c0 49 -29 79 -82 79
c-66 0 -104 -56 -117 -115l-61 -283h-115l85 403c10 46 11 80 11 84h112c0 -6 -1 -32 -5 -51c35 47 90 65 144 65c91 0 147 -62 147 -151c0 -16 -2 -37 -6 -54z" />
    <glyph glyph-name="ograve" unicode="&#xf2;" horiz-adv-x="551" 
d="M263 548l-99 148h132l57 -148h-90zM270 398c-78 0 -146 -72 -146 -183c0 -77 45 -126 111 -126c72 0 146 63 146 184c0 77 -42 124 -111 125zM498 277c0 -161 -113 -292 -269 -292c-137 0 -221 101 -221 226c0 170 120 291 270 291c140 0 220 -100 220 -225z" />
    <glyph glyph-name="oacute" unicode="&#xf3;" horiz-adv-x="551" 
d="M503 696l-162 -148h-100l117 148h145zM270 398c-78 0 -146 -72 -146 -183c0 -77 45 -126 111 -126c72 0 146 63 146 184c0 77 -42 124 -111 125zM498 277c0 -161 -113 -292 -269 -292c-137 0 -221 101 -221 226c0 170 120 291 270 291c140 0 220 -100 220 -225z" />
    <glyph glyph-name="ocircumflex" unicode="&#xf4;" horiz-adv-x="551" 
d="M237 549h-103l138 143h123l76 -143h-95l-53 77zM270 398c-78 0 -146 -72 -146 -183c0 -77 45 -126 111 -126c72 0 146 63 146 184c0 77 -42 124 -111 125zM498 277c0 -161 -113 -292 -269 -292c-137 0 -221 101 -221 226c0 170 120 291 270 291c140 0 220 -100 220 -225z
" />
    <glyph glyph-name="otilde" unicode="&#xf5;" horiz-adv-x="551" 
d="M270 398c-78 0 -146 -72 -146 -183c0 -77 45 -126 111 -126c72 0 146 63 146 184c0 77 -42 124 -111 125zM498 277c0 -161 -113 -292 -269 -292c-137 0 -221 101 -221 226c0 170 120 291 270 291c140 0 220 -100 220 -225zM202 555h-79c11 98 65 135 124 135
c30 0 54 -13 71 -24l6 -4c13 -9 26 -18 42 -18c21 0 34 15 40 44h78c-15 -99 -63 -135 -121 -135c-29 0 -52 12 -70 24l-8 5c-15 9 -26 17 -43 17c-19 0 -34 -13 -40 -44z" />
    <glyph glyph-name="odieresis" unicode="&#xf6;" horiz-adv-x="551" 
d="M149 618c0 38 32 72 72 72c35 0 59 -28 59 -59c0 -41 -37 -71 -74 -71c-33 0 -57 26 -57 58zM352 618c0 38 33 72 72 72c35 0 59 -28 59 -59c0 -41 -37 -71 -73 -71c-34 0 -58 26 -58 58zM270 398c-78 0 -146 -72 -146 -183c0 -77 45 -126 111 -126c72 0 146 63 146 184
c0 77 -42 124 -111 125zM498 277c0 -161 -113 -292 -269 -292c-137 0 -221 101 -221 226c0 170 120 291 270 291c140 0 220 -100 220 -225z" />
    <glyph glyph-name="divide" unicode="&#xf7;" horiz-adv-x="575" 
d="M198 473c0 39 33 71 73 71c39 0 71 -32 71 -71s-32 -73 -71 -73c-40 0 -73 34 -73 73zM198 111c0 39 33 72 73 72c39 0 71 -33 71 -72s-32 -72 -71 -72c-40 0 -73 33 -73 72zM35 243v98h474v-98h-474z" />
    <glyph glyph-name="oslash" unicode="&#xf8;" horiz-adv-x="551" 
d="M21 -31l-54 55l71 68c-19 31 -30 75 -30 119c0 170 120 291 270 291c57 0 105 -17 141 -46l65 63l54 -55l-70 -67c20 -35 30 -76 30 -120c0 -161 -113 -292 -269 -292c-57 0 -105 18 -142 47zM381 273c0 13 -1 24 -4 37l-209 -200c18 -14 41 -21 67 -21
c72 0 146 63 146 184zM270 398c-78 0 -146 -72 -146 -183c0 -14 1 -26 4 -37l208 199c-17 13 -40 20 -66 21z" />
    <glyph glyph-name="ugrave" unicode="&#xf9;" horiz-adv-x="557" 
d="M93 487h116l-60 -280c-3 -14 -5 -27 -5 -39c0 -46 23 -79 80 -79c62 0 100 53 113 114l60 284h114l-78 -376c-6 -30 -11 -58 -11 -89c0 -6 0 -11 1 -22h-112c-1 6 -2 16 -2 29c0 7 0 15 1 24c-28 -43 -80 -64 -125 -64c-102 0 -159 66 -159 159c0 17 2 35 6 54zM271 548
l-99 148h132l57 -148h-90z" />
    <glyph glyph-name="uacute" unicode="&#xfa;" horiz-adv-x="557" 
d="M503 696l-162 -148h-100l117 148h145zM93 487h116l-60 -280c-3 -14 -5 -27 -5 -39c0 -46 23 -79 80 -79c62 0 100 53 113 114l60 284h114l-78 -376c-6 -30 -11 -58 -11 -89c0 -6 0 -11 1 -22h-112c-1 6 -2 16 -2 29c0 7 0 15 1 24c-28 -43 -80 -64 -125 -64
c-102 0 -159 66 -159 159c0 17 2 35 6 54z" />
    <glyph glyph-name="ucircumflex" unicode="&#xfb;" horiz-adv-x="557" 
d="M245 549h-103l138 143h123l76 -143h-95l-53 77zM93 487h116l-60 -280c-3 -14 -5 -27 -5 -39c0 -46 23 -79 80 -79c62 0 100 53 113 114l60 284h114l-78 -376c-6 -30 -11 -58 -11 -89c0 -6 0 -11 1 -22h-112c-1 6 -2 16 -2 29c0 7 0 15 1 24c-28 -43 -80 -64 -125 -64
c-102 0 -159 66 -159 159c0 17 2 35 6 54z" />
    <glyph glyph-name="udieresis" unicode="&#xfc;" horiz-adv-x="557" 
d="M163 618c0 38 32 72 72 72c35 0 59 -28 59 -59c0 -41 -37 -71 -74 -71c-33 0 -57 26 -57 58zM366 618c0 38 33 72 72 72c35 0 59 -28 59 -59c0 -41 -37 -71 -73 -71c-34 0 -58 26 -58 58zM93 487h116l-60 -280c-3 -14 -5 -27 -5 -39c0 -46 23 -79 80 -79
c62 0 100 53 113 114l60 284h114l-78 -376c-6 -30 -11 -58 -11 -89c0 -6 0 -11 1 -22h-112c-1 6 -2 16 -2 29c0 7 0 15 1 24c-28 -43 -80 -64 -125 -64c-102 0 -159 66 -159 159c0 17 2 35 6 54z" />
    <glyph glyph-name="yacute" unicode="&#xfd;" horiz-adv-x="515" 
d="M95 -190h-129l175 270l-113 407h123l75 -288l175 288h132zM471 696l-162 -148h-100l117 148h145z" />
    <glyph glyph-name="thorn" unicode="&#xfe;" horiz-adv-x="593" 
d="M-38 -190l194 914h115l-60 -284c33 37 86 59 140 59c127 0 188 -92 188 -208c0 -173 -106 -304 -255 -304c-70 0 -129 33 -154 78l-54 -255h-114zM310 396c-78 0 -145 -73 -145 -183c0 -79 44 -123 109 -123c72 0 147 66 147 186c0 78 -42 120 -111 120z" />
    <glyph glyph-name="ydieresis" unicode="&#xff;" horiz-adv-x="515" 
d="M126 618c0 38 32 72 72 72c35 0 59 -28 59 -59c0 -41 -37 -71 -74 -71c-33 0 -57 26 -57 58zM329 618c0 38 33 72 72 72c35 0 59 -28 59 -59c0 -41 -37 -71 -73 -71c-34 0 -58 26 -58 58zM95 -190h-129l175 270l-113 407h123l75 -288l175 288h132z" />
    <glyph glyph-name="dotlessi" unicode="&#x131;" horiz-adv-x="267" 
d="M116 0h-116l104 487h116z" />
    <glyph glyph-name="Lslash" unicode="&#x141;" horiz-adv-x="555" 
d="M456 0h-436l61 288l-99 -40l21 101l99 40l68 320h120l-56 -266l164 67l-21 -100l-165 -68l-48 -228h316z" />
    <glyph glyph-name="lslash" unicode="&#x142;" horiz-adv-x="304" 
d="M121 0h-115l63 297l-96 -39l22 100l95 39l70 327h115l-59 -276l103 42l-22 -100l-102 -42z" />
    <glyph glyph-name="OE" unicode="&#x152;" horiz-adv-x="1091" 
d="M600 401c0 132 -79 210 -194 210c-148 0 -249 -135 -250 -303c0 -132 79 -210 194 -210c148 0 248 136 250 303zM958 0h-435l12 58c-54 -47 -124 -73 -197 -73c-182 0 -305 128 -305 314c0 275 191 425 379 425c115 0 196 -46 238 -125l23 110h435l-24 -112h-314
l-40 -188h285l-24 -109h-284l-41 -188h315z" />
    <glyph glyph-name="oe" unicode="&#x153;" horiz-adv-x="904" 
d="M601 -15c-75 0 -141 31 -181 87c-47 -53 -113 -87 -191 -87c-137 0 -221 101 -221 226c0 170 120 291 270 291c82 0 141 -34 175 -87c50 56 120 87 189 87c134 0 209 -84 209 -201c0 -33 -7 -67 -14 -89h-347c-1 -4 -1 -7 -1 -11c0 -69 48 -117 115 -117
c64 0 105 34 125 71l88 -49c-33 -64 -108 -121 -216 -121zM503 297h234c0 2 1 10 1 15c0 42 -25 93 -99 93c-73 0 -119 -51 -136 -108zM381 273c0 76 -42 125 -111 125c-78 0 -146 -72 -146 -183c0 -77 45 -126 111 -126c72 0 146 63 146 184z" />
    <glyph glyph-name="Scaron" unicode="&#x160;" horiz-adv-x="583" 
d="M470 883h112l-145 -124h-129l-89 124h100l60 -65zM264 91c74 0 121 40 121 97c0 35 -16 67 -67 90l-89 40c-85 38 -134 97 -134 187c0 126 109 219 246 219c181 0 237 -127 237 -204l-113 -20c0 32 -15 118 -130 118c-74 0 -118 -45 -118 -100c0 -42 24 -70 60 -86
l89 -40c101 -45 144 -111 144 -192c0 -111 -95 -215 -245 -215c-191 0 -263 131 -263 234c0 6 1 12 1 18l116 20c-1 -7 -1 -14 -1 -21c0 -72 42 -145 146 -145z" />
    <glyph glyph-name="scaron" unicode="&#x161;" horiz-adv-x="443" 
d="M356 694h104l-137 -145h-125l-74 145h94l53 -77zM-13 151l100 19c0 -51 30 -94 89 -94c47 0 69 28 69 56c0 20 -12 39 -41 52l-62 27c-66 29 -96 74 -96 131c0 84 71 160 182 160c138 0 175 -92 178 -145l-101 -21c-2 30 -19 76 -83 76c-41 0 -66 -25 -66 -55
c0 -24 13 -39 34 -48l64 -28c71 -31 105 -81 105 -139c0 -70 -56 -157 -184 -157c-152 0 -188 108 -188 166z" />
    <glyph glyph-name="Ydieresis" unicode="&#x178;" horiz-adv-x="619" 
d="M216 814c0 40 32 74 74 74c35 0 59 -27 59 -59c0 -44 -35 -74 -73 -74c-35 0 -60 25 -60 59zM422 814c0 40 32 74 74 74c35 0 59 -27 59 -59c0 -44 -35 -74 -73 -74c-35 0 -60 25 -60 59zM246 302l-159 407h127l110 -292l211 292h144l-314 -411l-62 -298h-121z" />
    <glyph glyph-name="Zcaron" unicode="&#x17d;" horiz-adv-x="625" 
d="M495 883h112l-145 -124h-129l-89 124h100l60 -65zM507 0h-537l25 116l475 481h-364l24 112h523l-24 -112l-481 -484h383z" />
    <glyph glyph-name="zcaron" unicode="&#x17e;" horiz-adv-x="483" 
d="M369 694h104l-137 -145h-125l-74 145h94l53 -77zM368 0h-400l22 102l303 284h-235l22 101h385l-22 -100l-307 -285h253z" />
    <glyph glyph-name="florin" unicode="&#x192;" horiz-adv-x="489" 
d="M99 24l73 364h-103v99h123l21 101c22 107 100 152 177 152c44 0 64 -6 83 -12v-101c-17 5 -33 8 -57 8c-31 0 -76 -12 -91 -84l-13 -64h122v-99h-142l-80 -401c-22 -107 -101 -152 -178 -152c-44 0 -61 5 -85 12v101c16 -4 36 -7 61 -7c31 0 75 10 89 83z" />
    <glyph glyph-name="circumflex" unicode="&#x2c6;" horiz-adv-x="386" 
d="M61 549h-103l138 143h123l76 -143h-95l-53 77z" />
    <glyph glyph-name="caron" unicode="&#x2c7;" horiz-adv-x="386" 
d="M223 694h104l-137 -145h-125l-74 145h94l53 -77z" />
    <glyph glyph-name="uni02C9" unicode="&#x2c9;" horiz-adv-x="328" 
d="M243 577h-277l19 90h277z" />
    <glyph glyph-name="breve" unicode="&#x2d8;" horiz-adv-x="359" 
d="M158 547c-86 0 -131 58 -131 121c0 9 1 20 3 27h79c-1 -4 -1 -6 -1 -8c0 -26 14 -54 59 -54c50 0 74 35 83 62h88c-17 -75 -74 -148 -180 -148z" />
    <glyph glyph-name="dotaccent" unicode="&#x2d9;" horiz-adv-x="191" 
d="M-29 614c0 41 35 81 80 81c39 0 66 -29 66 -64c0 -46 -37 -82 -80 -82c-39 0 -66 29 -66 65z" />
    <glyph glyph-name="ring" unicode="&#x2da;" horiz-adv-x="277" 
d="M98 755c59 0 105 -43 105 -100c0 -65 -58 -120 -122 -120c-59 0 -106 43 -106 99c0 72 62 121 123 121zM44 641c0 -24 16 -39 40 -39c26 0 48 19 48 47c0 22 -16 39 -40 39s-48 -19 -48 -47z" />
    <glyph glyph-name="ogonek" unicode="&#x2db;" horiz-adv-x="218" 
d="M56 -220c-58 0 -102 35 -102 92c0 86 78 130 129 149l65 -21c-44 -18 -103 -53 -103 -104c0 -26 20 -38 45 -39c15 0 26 2 28 2l-15 -72c-13 -4 -25 -7 -47 -7z" />
    <glyph glyph-name="tilde" unicode="&#x2dc;" horiz-adv-x="375" 
d="M80 555h-79c11 98 65 135 124 135c30 0 54 -13 71 -24l6 -4c13 -9 26 -18 42 -18c21 0 34 15 40 44h78c-15 -99 -63 -135 -121 -135c-29 0 -52 12 -70 24l-8 5c-15 9 -26 17 -43 17c-19 0 -34 -13 -40 -44z" />
    <glyph glyph-name="hungarumlaut" unicode="&#x2dd;" horiz-adv-x="373" 
d="M161 696l-126 -148h-80l84 148h122zM318 696l-139 -148h-80l96 148h123z" />
    <glyph glyph-name="uni0394" unicode="&#x394;" horiz-adv-x="663" 
d="M480 111l-172 465l-171 -465h343zM-30 0l274 709h130l274 -709h-678z" />
    <glyph glyph-name="uni03A9" unicode="&#x3a9;" horiz-adv-x="801" 
d="M399 614c-112 0 -226 -79 -226 -223c0 -127 95 -208 187 -227v-164h-304v109h185c-100 39 -191 142 -191 287c0 204 166 328 349 328s349 -124 349 -328c0 -145 -91 -248 -191 -287h185v-109h-304v164c92 19 187 100 187 227c0 144 -114 223 -226 223z" />
    <glyph glyph-name="uni03BC" unicode="&#x3bc;" horiz-adv-x="589" 
d="M58 -190v677h117v-286c0 -60 28 -111 98 -111c67 0 102 45 102 109v288h116v-398c0 -45 4 -81 5 -89h-111c-2 10 -4 36 -4 55c-26 -47 -85 -69 -138 -69c-26 0 -49 5 -69 14v-190h-116z" />
    <glyph glyph-name="pi" unicode="&#x3c0;" horiz-adv-x="638" 
d="M500 387v-248c0 -36 24 -48 51 -48c14 0 22 1 31 4v-90c-8 -3 -29 -13 -65 -13c-90 0 -132 59 -132 133v262h-147v-387h-115v387h-83v100h540v-100h-80z" />
    <glyph glyph-name="uni2007" unicode="&#x2007;" horiz-adv-x="607" 
 />
    <glyph glyph-name="uni2008" unicode="&#x2008;" horiz-adv-x="272" 
 />
    <glyph glyph-name="uni200B" unicode="&#x200b;" horiz-adv-x="0" 
 />
    <glyph glyph-name="endash" unicode="&#x2013;" horiz-adv-x="633" 
d="M549 242h-514l21 101h514z" />
    <glyph glyph-name="emdash" unicode="&#x2014;" horiz-adv-x="1085" 
d="M991 242h-946l21 101h946z" />
    <glyph glyph-name="quoteleft" unicode="&#x2018;" horiz-adv-x="225" 
d="M224 515c0 -43 -35 -78 -81 -78s-76 34 -76 81c0 102 86 194 193 199l-12 -57c-49 -6 -95 -44 -107 -89c2 1 12 4 21 4c37 0 62 -26 62 -60z" />
    <glyph glyph-name="quoteright" unicode="&#x2019;" horiz-adv-x="215" 
d="M92 639c0 43 36 78 82 78c45 0 76 -34 76 -81c0 -102 -87 -194 -193 -199l11 57c47 6 96 44 107 89c-2 -1 -12 -4 -21 -4c-37 0 -62 26 -62 60z" />
    <glyph glyph-name="quotesinglbase" unicode="&#x201a;" horiz-adv-x="223" 
d="M-24 55c0 44 35 78 81 78s76 -33 76 -81c0 -101 -86 -194 -193 -198l12 56c46 6 95 44 106 90c-2 -2 -11 -4 -21 -4c-37 0 -61 26 -61 59z" />
    <glyph glyph-name="quotedblleft" unicode="&#x201c;" horiz-adv-x="411" 
d="M411 520c0 -42 -33 -75 -80 -75c-44 0 -74 32 -74 79c0 98 84 187 189 193l-12 -55c-46 -7 -93 -45 -104 -87c2 1 11 3 20 3c37 0 61 -25 61 -58zM220 520c0 -42 -33 -75 -79 -75c-45 0 -74 32 -74 79c0 98 83 187 188 193l-12 -55c-46 -7 -92 -45 -104 -87
c2 1 11 3 21 3c36 0 60 -25 60 -58z" />
    <glyph glyph-name="quotedblright" unicode="&#x201d;" horiz-adv-x="402" 
d="M92 639c0 43 34 76 79 76c44 0 74 -33 74 -79c0 -99 -84 -189 -188 -193l11 55c45 6 93 42 104 87c-2 -2 -11 -4 -20 -4c-36 0 -60 25 -60 58zM283 639c0 43 34 76 80 76c44 0 74 -33 74 -79c0 -99 -84 -189 -189 -193l12 55c45 6 93 42 104 87c-2 -2 -11 -4 -20 -4
c-37 0 -61 25 -61 58z" />
    <glyph glyph-name="quotedblbase" unicode="&#x201e;" horiz-adv-x="403" 
d="M-25 54c0 43 34 76 79 76s74 -33 74 -79c0 -99 -83 -189 -188 -193l12 55c44 6 93 42 104 87c-2 -2 -11 -4 -21 -4c-36 0 -60 25 -60 58zM160 54c0 43 34 76 79 76c44 0 74 -33 74 -79c0 -99 -84 -189 -188 -193l11 55c45 6 93 42 104 87c-2 -2 -11 -4 -20 -4
c-36 0 -60 25 -60 58z" />
    <glyph glyph-name="dagger" unicode="&#x2020;" horiz-adv-x="418" 
d="M231 709h98l-31 -145h125l-20 -94h-125l-65 -308h-99l66 308h-125l20 94h124z" />
    <glyph glyph-name="daggerdbl" unicode="&#x2021;" horiz-adv-x="436" 
d="M187 0h-98l30 146h-124l19 93h125l49 231h-125l21 93h124l31 146h98l-31 -146h125l-20 -93h-125l-49 -231h125l-20 -93h-124z" />
    <glyph glyph-name="bullet" unicode="&#x2022;" horiz-adv-x="550" 
d="M55 294c0 116 93 209 208 209c114 0 207 -93 207 -209c0 -113 -93 -207 -207 -207c-115 0 -208 94 -208 207z" />
    <glyph glyph-name="ellipsis" unicode="&#x2026;" horiz-adv-x="870" 
d="M75 -8c-41 0 -68 30 -68 65c0 44 37 82 83 82c41 0 68 -30 68 -66c0 -45 -38 -81 -83 -81zM369 -8c-41 0 -68 30 -68 65c0 44 37 82 83 82c41 0 68 -30 68 -66c0 -45 -38 -81 -83 -81zM664 -8c-41 0 -68 30 -68 65c0 44 37 82 83 82c41 0 68 -30 68 -66
c0 -45 -38 -81 -83 -81z" />
    <glyph glyph-name="perthousand" unicode="&#x2030;" horiz-adv-x="1017" 
d="M790 -6c-46 0 -85 18 -111 48c-33 -30 -77 -48 -120 -48c-85 0 -146 64 -146 144c0 100 83 177 178 177c45 0 84 -19 110 -48c32 30 75 48 121 48c84 0 146 -64 146 -145c0 -102 -89 -176 -178 -176zM194 338c-85 0 -146 64 -146 144c0 100 83 177 178 177
c84 0 146 -64 146 -145c0 -102 -89 -176 -178 -176zM742 648l-598 -648h-110l599 648h109zM567 81c39 0 78 32 78 85c0 37 -24 62 -63 62s-77 -34 -77 -84c0 -37 23 -63 62 -63zM202 425c39 0 78 32 78 85c0 37 -24 62 -63 62s-77 -34 -77 -84c0 -37 23 -63 62 -63zM798 81
c39 0 78 32 78 85c0 37 -24 62 -63 62s-77 -34 -77 -84c0 -37 23 -63 62 -63z" />
    <glyph glyph-name="guilsinglleft" unicode="&#x2039;" horiz-adv-x="293" 
d="M217 100h-108l-99 196l174 191h119l-180 -200z" />
    <glyph glyph-name="guilsinglright" unicode="&#x203a;" horiz-adv-x="290" 
d="M46 487h108l99 -196l-174 -191h-119l181 200z" />
    <glyph glyph-name="uni2042" unicode="&#x2042;" horiz-adv-x="813" 
d="M514 709l-22 -115l112 36l10 -78l-113 -36l53 -88l-70 -47l-54 94l-87 -94l-59 48l89 93l-100 34l36 74l99 -36l19 115h87zM241 317l-22 -115l112 36l10 -78l-113 -36l53 -88l-70 -47l-54 94l-87 -94l-59 48l89 93l-100 34l36 74l99 -36l19 115h87zM652 317l-22 -115
l112 36l10 -78l-113 -36l53 -88l-70 -47l-54 94l-87 -94l-59 48l89 93l-100 34l36 74l99 -36l19 115h87z" />
    <glyph glyph-name="fraction" unicode="&#x2044;" horiz-adv-x="538" 
d="M623 648l-598 -648h-110l599 648h109z" />
    <glyph glyph-name="uni2051" unicode="&#x2051;" horiz-adv-x="434" 
d="M334 709l-22 -115l112 36l10 -78l-113 -36l53 -88l-70 -47l-54 94l-87 -94l-59 48l89 93l-100 34l36 74l99 -36l19 115h87zM242 318l-22 -115l112 36l10 -78l-113 -36l53 -88l-70 -47l-54 94l-87 -94l-59 48l89 93l-100 34l36 74l99 -36l19 115h87z" />
    <glyph glyph-name="uni2070" unicode="&#x2070;" horiz-adv-x="415" 
d="M55 477c0 103 53 240 186 240c97 0 144 -64 144 -141c0 -116 -57 -241 -186 -241c-83 0 -144 56 -144 142zM142 479c0 -34 18 -66 61 -66c68 0 95 99 95 161c0 34 -14 66 -61 66c-75 0 -95 -116 -95 -161z" />
    <glyph glyph-name="uni2074" unicode="&#x2074;" horiz-adv-x="433" 
d="M56 417l19 96l204 196h101l-47 -219h63l-16 -73h-62c0 -1 -6 -26 -16 -74h-89l15 74h-172zM243 490l28 122l-127 -122h99z" />
    <glyph glyph-name="uni2075" unicode="&#x2075;" horiz-adv-x="402" 
d="M52 459l85 8c0 -30 19 -55 55 -55c30 0 61 19 61 59c0 32 -24 49 -53 49c-19 0 -35 -7 -46 -16l-73 37l74 168h219l-16 -75h-155l-28 -62c15 9 38 12 54 12c68 0 114 -39 114 -106c0 -78 -64 -142 -152 -142c-82 0 -139 52 -139 123z" />
    <glyph glyph-name="uni2076" unicode="&#x2076;" horiz-adv-x="391" 
d="M384 692l-31 -67c-18 10 -41 17 -75 17c-47 0 -98 -26 -118 -76c18 17 49 23 73 23c72 0 116 -44 116 -109c0 -90 -75 -145 -156 -145c-76 0 -141 53 -141 149c0 133 98 232 227 232c41 0 78 -7 105 -24zM207 520c-33 0 -64 -23 -64 -60c0 -31 23 -51 54 -51
c30 0 62 21 62 63c0 28 -21 48 -52 48z" />
    <glyph glyph-name="uni2077" unicode="&#x2077;" horiz-adv-x="364" 
d="M394 709l-16 -74c-51 -36 -161 -119 -213 -292h-95c43 175 183 281 198 290h-186l15 76h297z" />
    <glyph glyph-name="uni2078" unicode="&#x2078;" horiz-adv-x="398" 
d="M193 600c0 -20 17 -37 41 -37c28 0 55 16 55 46c0 18 -13 37 -44 37c-32 0 -52 -20 -52 -46zM151 446c0 -26 25 -41 53 -41c38 0 61 21 61 51c0 21 -16 41 -53 41s-61 -24 -61 -51zM203 335c-95 0 -143 44 -143 101c0 46 38 85 95 98c-29 11 -48 43 -48 70
c0 64 56 113 144 113c80 0 127 -41 127 -96c0 -40 -29 -78 -78 -94c30 -10 54 -43 54 -74c0 -70 -66 -118 -151 -118z" />
    <glyph glyph-name="uni2079" unicode="&#x2079;" horiz-adv-x="409" 
d="M47 367l32 67c22 -15 51 -23 83 -23c45 0 98 25 112 79c-18 -18 -47 -27 -71 -27c-71 0 -121 45 -121 111c0 87 72 142 155 142c77 0 139 -50 139 -144c0 -141 -85 -237 -217 -237c-43 0 -84 13 -112 32zM222 530c34 0 61 26 61 63c0 30 -23 50 -50 50
c-32 0 -61 -23 -61 -63c0 -30 21 -50 50 -50z" />
    <glyph glyph-name="uni2080" unicode="&#x2080;" horiz-adv-x="415" 
d="M20 61c0 103 53 240 186 240c97 0 144 -64 144 -141c0 -116 -57 -241 -186 -241c-83 0 -144 56 -144 142zM107 63c0 -34 18 -66 61 -66c68 0 95 99 95 161c0 34 -14 66 -61 66c-75 0 -95 -116 -95 -161z" />
    <glyph glyph-name="uni2081" unicode="&#x2081;" horiz-adv-x="298" 
d="M142 -90h-91l53 238h-85l12 59c55 2 95 34 110 69h80z" />
    <glyph glyph-name="uni2082" unicode="&#x2082;" horiz-adv-x="382" 
d="M109 81l64 28c36 16 52 34 52 59c0 19 -14 42 -45 42c-37 0 -60 -24 -60 -69l-84 3c0 85 60 139 147 139c88 0 133 -51 133 -110c0 -60 -40 -100 -102 -127l-76 -33c-20 -9 -27 -24 -28 -27h171l-16 -76h-278c5 80 46 138 122 171z" />
    <glyph glyph-name="uni2083" unicode="&#x2083;" horiz-adv-x="427" 
d="M138 77l-27 64l111 62h-163l16 74h272l-17 -85l-108 -59c48 -10 82 -48 82 -99c0 -68 -61 -130 -153 -130c-82 0 -141 49 -141 119c0 5 1 12 2 16l82 6c-1 -5 -1 -8 -1 -10c0 -29 23 -56 58 -56c38 0 63 20 63 57c0 29 -24 46 -51 46c-10 0 -18 -2 -25 -5z" />
    <glyph glyph-name="uni2084" unicode="&#x2084;" horiz-adv-x="430" 
d="M-7 -16l19 96l204 196h101l-47 -219h63l-16 -73h-62c0 -1 -6 -26 -16 -74h-89l15 74h-172zM180 57l28 122l-127 -122h99z" />
    <glyph glyph-name="uni2085" unicode="&#x2085;" horiz-adv-x="402" 
d="M-7 26l85 8c0 -30 19 -55 55 -55c30 0 61 19 61 59c0 32 -24 49 -53 49c-19 0 -35 -7 -46 -16l-73 37l74 168h219l-16 -75h-155l-28 -62c15 9 38 12 54 12c68 0 114 -39 114 -106c0 -78 -64 -142 -152 -142c-82 0 -139 52 -139 123z" />
    <glyph glyph-name="uni2086" unicode="&#x2086;" horiz-adv-x="391" 
d="M325 260l-31 -67c-18 10 -41 17 -75 17c-47 0 -98 -26 -118 -76c18 17 49 23 73 23c72 0 116 -44 116 -109c0 -90 -75 -145 -156 -145c-76 0 -141 53 -141 149c0 133 98 232 227 232c41 0 78 -7 105 -24zM148 88c-33 0 -64 -23 -64 -60c0 -31 23 -51 54 -51
c30 0 62 21 62 63c0 28 -21 48 -52 48z" />
    <glyph glyph-name="uni2087" unicode="&#x2087;" horiz-adv-x="364" 
d="M337 276l-16 -74c-51 -36 -161 -119 -213 -292h-95c43 175 183 281 198 290h-186l15 76h297z" />
    <glyph glyph-name="uni2088" unicode="&#x2088;" horiz-adv-x="398" 
d="M136 167c0 -20 17 -37 41 -37c28 0 55 16 55 46c0 18 -13 37 -44 37c-32 0 -52 -20 -52 -46zM94 13c0 -26 25 -41 53 -41c38 0 61 21 61 51c0 21 -16 41 -53 41s-61 -24 -61 -51zM146 -98c-95 0 -143 44 -143 101c0 46 38 85 95 98c-29 11 -48 43 -48 70
c0 64 56 113 144 113c80 0 127 -41 127 -96c0 -40 -29 -78 -78 -94c30 -10 54 -43 54 -74c0 -70 -66 -118 -151 -118z" />
    <glyph glyph-name="uni2089" unicode="&#x2089;" horiz-adv-x="409" 
d="M3 -65l32 67c22 -15 51 -23 83 -23c45 0 98 25 112 79c-18 -18 -47 -27 -71 -27c-71 0 -121 45 -121 111c0 87 72 142 155 142c77 0 139 -50 139 -144c0 -141 -85 -237 -217 -237c-43 0 -84 13 -112 32zM178 98c34 0 61 26 61 63c0 30 -23 50 -50 50
c-32 0 -61 -23 -61 -63c0 -30 21 -50 50 -50z" />
    <glyph glyph-name="Euro" unicode="&#x20ac;" horiz-adv-x="680" 
d="M49 360l19 85h84c63 144 207 218 340 218c87 0 155 -26 198 -66l-65 -86c-32 31 -86 49 -143 49c-73 0 -155 -36 -204 -115h299l-57 -85h-275c-5 -23 -8 -47 -8 -74h241l-57 -87h-169c29 -73 99 -111 183 -111c46 0 87 11 122 34l37 -90c-47 -29 -108 -47 -174 -47
c-137 0 -257 80 -291 214h-114l19 87h85c0 26 2 50 7 74h-77z" />
    <glyph glyph-name="uni2113" unicode="&#x2113;" horiz-adv-x="479" 
d="M100 131c0 26 12 85 13 89c-24 -5 -48 -10 -73 -12l21 103c23 3 48 9 73 17l46 218c20 95 84 148 159 148c84 0 130 -50 130 -125c0 -112 -95 -242 -240 -312l-14 -68c-2 -9 -5 -25 -5 -32c0 -54 44 -62 75 -62c43 0 67 16 73 19l-21 -99c-6 -5 -33 -22 -79 -22
c-107 0 -158 56 -158 138zM289 538l-31 -147c55 41 102 102 102 170c0 20 -9 31 -28 31s-35 -13 -43 -54z" />
    <glyph glyph-name="trademark" unicode="&#x2122;" horiz-adv-x="875" 
d="M361 632h-107l-61 -288h-85l61 288h-108l16 77h300zM776 344h-83l48 228l-139 -228h-64l-49 227l-48 -227h-84l77 365h108l50 -232l141 232h120z" />
    <glyph glyph-name="Omega" unicode="&#x2126;" horiz-adv-x="801" 
d="M399 614c-112 0 -226 -79 -226 -223c0 -127 95 -208 187 -227v-164h-304v109h185c-100 39 -191 142 -191 287c0 204 166 328 349 328s349 -124 349 -328c0 -145 -91 -248 -191 -287h185v-109h-304v164c92 19 187 100 187 227c0 144 -114 223 -226 223z" />
    <glyph glyph-name="uni2160" unicode="&#x2160;" horiz-adv-x="488" 
d="M107 648h401l-21 -104h-142l-93 -440h140l-21 -104h-401l21 104h142l93 440h-141z" />
    <glyph glyph-name="uni2161" unicode="&#x2161;" horiz-adv-x="765" 
d="M107 648h678l-21 -104h-138l-93 -440h137l-22 -104h-678l21 104h139l93 440h-138zM249 104h165l93 440h-165z" />
    <glyph glyph-name="uni2162" unicode="&#x2162;" horiz-adv-x="1039" 
d="M688 104l93 440h-161l-92 -440h160zM409 104l93 440h-161l-92 -440h160zM-30 0l21 104h139l93 440h-138l22 104h952l-21 -104h-139l-92 -440h137l-22 -104h-952z" />
    <glyph glyph-name="uni2163" unicode="&#x2163;" horiz-adv-x="1008" 
d="M85 544l22 104h931l-21 -104h-113l-239 -440h258l-21 -104h-932l21 104h132l93 440h-131zM334 544l-93 -440h225l-53 440h-79zM535 544l40 -389l205 389h-245z" />
    <glyph glyph-name="uni2164" unicode="&#x2164;" horiz-adv-x="772" 
d="M-15 104h249l-53 440h-106l22 104h705l-21 -104h-110l-239 -440h252l-21 -104h-700zM303 544l40 -389l205 389h-245z" />
    <glyph glyph-name="uni2165" unicode="&#x2165;" horiz-adv-x="1010" 
d="M79 544l21 104h930l-22 -104h-131l-93 -440h131l-22 -104h-930l22 104h255l-53 440h-108zM678 544l-239 -440h227l93 440h-81zM310 544l39 -389l206 389h-245z" />
    <glyph glyph-name="uni2166" unicode="&#x2166;" horiz-adv-x="1293" 
d="M349 155l207 389h-246zM666 104l92 440h-79l-240 -440h227zM942 104l93 440h-159l-92 -440h158zM1176 0h-1213l22 104h255l-53 440h-109l21 104h1213l-21 -104h-138l-92 -440h136z" />
    <glyph glyph-name="uni2167" unicode="&#x2167;" horiz-adv-x="1557" 
d="M85 544l22 104h1470l-22 -104h-134l-93 -440h133l-21 -104h-1470l21 104h254l-51 440h-109zM679 544l-237 -440h226l93 440h-82zM879 544l-93 -440h153l93 440h-153zM1150 544l-93 -440h152l93 440h-152zM316 544l37 -389l202 389h-239z" />
    <glyph glyph-name="uni2168" unicode="&#x2168;" horiz-adv-x="980" 
d="M85 544l22 104h903l-22 -104h-105l-208 -226l109 -214h111l-22 -104h-903l21 104h132l93 440h-131zM531 319l-114 225h-83l-93 -440h87zM553 544l66 -138l125 138h-191zM586 233l-119 -129h181z" />
    <glyph glyph-name="uni2169" unicode="&#x2169;" horiz-adv-x="744" 
d="M295 319l-114 225h-102l21 104h674l-22 -104h-105l-208 -226l109 -214h110l-21 -104h-674l22 104h107zM317 544l66 -138l125 138h-191zM350 233l-119 -129h181z" />
    <glyph glyph-name="uni216C" unicode="&#x216c;" horiz-adv-x="631" 
d="M107 648h374l-21 -104h-134l-93 -440h192l39 183h116l-61 -287h-549l21 104h124l93 440h-123z" />
    <glyph glyph-name="uni216D" unicode="&#x216d;" horiz-adv-x="718" 
d="M608 648h117l-51 -238h-116c-3 72 -66 146 -174 146c-106 0 -228 -85 -228 -276c0 -119 80 -189 184 -189c113 0 165 71 181 128l3 14h117l-50 -233h-115l11 55c-36 -40 -91 -70 -166 -70c-153 0 -281 117 -281 290c0 248 182 388 353 388c107 0 167 -39 198 -93z" />
    <glyph glyph-name="uni216E" unicode="&#x216e;" horiz-adv-x="742" 
d="M333 544l-94 -440h70c126 0 253 94 253 281c0 105 -66 159 -161 159h-68zM-30 0l21 104h130l92 440h-127l20 104h316c156 0 260 -93 260 -256c0 -253 -178 -392 -367 -392h-345z" />
    <glyph glyph-name="uni216F" unicode="&#x216f;" horiz-adv-x="1032" 
d="M312 104l-21 -104h-321l21 104h116l92 440h-114l22 104h275l90 -469l286 469h294l-21 -104h-118l-92 -440h116l-22 -104h-325l22 104h91l79 376l-297 -477h-89l-95 474l-79 -373h90z" />
    <glyph glyph-name="arrowleft" unicode="&#x2190;" horiz-adv-x="1046" 
d="M239 86l-244 206l244 208v-157h742v-101h-742v-156z" />
    <glyph glyph-name="arrowup" unicode="&#x2191;" horiz-adv-x="469" 
d="M252 800l215 -257h-165v-690h-100v690h-167z" />
    <glyph glyph-name="arrowright" unicode="&#x2192;" horiz-adv-x="1058" 
d="M1019 292l-274 -224v174h-716v100h716v175z" />
    <glyph glyph-name="arrowdown" unicode="&#x2193;" horiz-adv-x="465" 
d="M443 105l-224 -262l-225 262h174v686h101v-686h174z" />
    <glyph glyph-name="uni2196" unicode="&#x2196;" horiz-adv-x="875" 
d="M60 709h314l-121 -122l527 -526l-71 -71l-527 526l-122 -123v316z" />
    <glyph glyph-name="uni2197" unicode="&#x2197;" horiz-adv-x="764" 
d="M355 709h314v-316l-123 123l-526 -526l-71 71l527 526z" />
    <glyph glyph-name="uni2198" unicode="&#x2198;" horiz-adv-x="865" 
d="M770 0h-314l121 122l-527 526l71 71l526 -527l123 124v-316z" />
    <glyph glyph-name="uni2199" unicode="&#x2199;" horiz-adv-x="755" 
d="M354 0h-314v316l122 -124l527 527l71 -71l-527 -526z" />
    <glyph glyph-name="uni21A9" unicode="&#x21a9;" horiz-adv-x="848" 
d="M401 557v100h193c137 0 233 -93 233 -214s-97 -214 -230 -214h-366v-156l-244 207l244 208v-158h363c74 0 131 47 131 113c0 71 -57 114 -135 114h-189z" />
    <glyph glyph-name="uni21B0" unicode="&#x21b0;" horiz-adv-x="791" 
d="M288 310l-245 207l245 207v-157h418v-567h-100v467h-318v-157z" />
    <glyph glyph-name="uni21B1" unicode="&#x21b1;" horiz-adv-x="736" 
d="M135 0h-100v567h452v157l244 -207l-244 -207v157h-352v-467z" />
    <glyph glyph-name="uni21B2" unicode="&#x21b2;" horiz-adv-x="766" 
d="M584 709h101v-567h-453v-157l-244 207l244 207v-157h352v467z" />
    <glyph glyph-name="uni21B3" unicode="&#x21b3;" horiz-adv-x="846" 
d="M531 399l244 -207l-244 -207v157h-453v567h101v-467h352v157z" />
    <glyph glyph-name="uni21B4" unicode="&#x21b4;" horiz-adv-x="806" 
d="M58 609v100h572v-484h157l-206 -241l-207 241h156v384h-472z" />
    <glyph glyph-name="uni21C6" unicode="&#x21c6;" horiz-adv-x="1139" 
d="M304 342l-244 207l244 208v-158h756v-101h-756v-156zM1084 166l-244 -207v157h-755v100h755v157z" />
    <glyph glyph-name="partialdiff" unicode="&#x2202;" horiz-adv-x="658" 
d="M275 617c-31 0 -86 -5 -143 -33l-40 92c63 35 135 46 191 46c124 0 314 -63 314 -374c0 -214 -93 -363 -283 -363c-125 0 -248 81 -248 242c0 145 120 232 244 232c79 0 136 -27 165 -54c-18 155 -93 212 -200 212zM333 360c-100 0 -150 -62 -150 -139
c0 -84 68 -130 136 -130c128 0 158 130 159 206c-32 40 -87 63 -145 63z" />
    <glyph glyph-name="Delta" unicode="&#x2206;" horiz-adv-x="663" 
d="M480 111l-172 465l-171 -465h343zM-30 0l274 709h130l274 -709h-678z" />
    <glyph glyph-name="product" unicode="&#x220f;" horiz-adv-x="686" 
d="M598 0h-118v600h-278v-600h-120v709h516v-709z" />
    <glyph glyph-name="summation" unicode="&#x2211;" horiz-adv-x="567" 
d="M35 0v107l263 248l-263 247v107h507v-111h-344l260 -243l-269 -244h353v-111h-507z" />
    <glyph glyph-name="minus" unicode="&#x2212;" horiz-adv-x="552" 
d="M40 244v96h451v-96h-451z" />
    <glyph glyph-name="uni2215" unicode="&#x2215;" horiz-adv-x="403" 
d="M376 653h111l-456 -658h-111z" />
    <glyph glyph-name="uni2219" unicode="&#x2219;" horiz-adv-x="278" 
d="M50 290c0 45 39 86 87 86c43 0 71 -32 71 -69c0 -50 -40 -87 -86 -87c-43 0 -72 32 -72 70z" />
    <glyph glyph-name="radical" unicode="&#x221a;" horiz-adv-x="673" 
d="M725 773h-126l-261 -773h-106l-190 534h120l123 -364l232 704h208v-101z" />
    <glyph glyph-name="infinity" unicode="&#x221e;" horiz-adv-x="821" 
d="M40 290c0 102 77 179 184 179c66 0 128 -36 184 -104c57 67 115 104 179 104c107 0 184 -77 184 -179s-77 -178 -184 -178c-67 0 -128 34 -183 103c-58 -66 -114 -103 -180 -103c-107 0 -184 76 -184 178zM226 369c-51 0 -83 -35 -83 -80s32 -79 83 -79
c44 0 80 32 117 77c-39 47 -72 82 -117 82zM585 210c51 0 83 34 83 79s-32 80 -83 80c-45 0 -78 -34 -117 -79c38 -46 73 -80 117 -80z" />
    <glyph glyph-name="integral" unicode="&#x222b;" horiz-adv-x="322" 
d="M86 -24v560c0 107 66 173 173 173h45v-103h-38c-39 0 -64 -24 -64 -71v-561c0 -107 -64 -174 -171 -174h-49v103h39c38 0 65 26 65 73z" />
    <glyph glyph-name="approxequal" unicode="&#x2248;" horiz-adv-x="660" 
d="M516 447l62 -52c-36 -59 -93 -92 -155 -92c-35 0 -68 10 -104 30l-48 26c-19 10 -39 15 -57 15c-33 0 -64 -15 -89 -46l-63 54c37 61 92 93 153 93c34 0 69 -10 106 -30l46 -25c21 -12 43 -18 63 -18c32 0 62 15 86 45zM516 250l62 -53c-36 -59 -93 -92 -155 -92
c-35 0 -68 10 -104 30l-48 26c-19 10 -39 15 -57 15c-33 0 -64 -15 -89 -46l-63 54c37 61 92 93 153 93c34 0 69 -10 106 -30l46 -25c21 -12 42 -18 63 -18c32 0 62 15 86 46z" />
    <glyph glyph-name="notequal" unicode="&#x2260;" horiz-adv-x="619" 
d="M62 343v94h292l66 95h109l-66 -95h74v-94h-139l-70 -102h209v-95h-274l-68 -98h-109l68 98h-92v95h157l70 102h-227z" />
    <glyph glyph-name="lessequal" unicode="&#x2264;" horiz-adv-x="572" 
d="M65 47v96h422v-96h-422zM65 311v97l422 141v-99l-292 -89l292 -91v-99z" />
    <glyph glyph-name="greaterequal" unicode="&#x2265;" horiz-adv-x="572" 
d="M487 143v-96h-422v96h422zM487 408v-97l-422 -140v98l292 90l-292 90v100z" />
    <glyph glyph-name="dotmath" unicode="&#x22c5;" horiz-adv-x="278" 
d="M50 290c0 45 39 86 87 86c43 0 71 -32 71 -69c0 -50 -40 -87 -86 -87c-43 0 -72 32 -72 70z" />
    <glyph glyph-name="uni24C5" unicode="&#x24c5;" horiz-adv-x="818" 
d="M35 355c0 203 163 369 366 369c204 0 369 -166 369 -369c0 -204 -165 -370 -369 -370c-203 0 -366 166 -366 370zM117 355c0 -166 125 -294 284 -294c160 0 285 128 285 294c0 165 -125 293 -285 293c-159 0 -284 -128 -284 -293zM380 369h47c46 0 79 24 79 70
c0 29 -19 46 -55 46h-46zM442 297h-78l-29 -141h-84l85 400h139c70 0 117 -53 117 -113c0 -81 -64 -146 -150 -146z" />
    <glyph glyph-name="filledbox" unicode="&#x25a0;" horiz-adv-x="882" 
d="M87 0v709h709v-709h-709z" />
    <glyph glyph-name="H22073" unicode="&#x25a1;" horiz-adv-x="882" 
d="M796 0h-709v709h709v-709zM186 613v-518h509v518h-509z" />
    <glyph glyph-name="triagup" unicode="&#x25b2;" horiz-adv-x="834" 
d="M355 724l418 -724h-838z" />
    <glyph glyph-name="uni25B3" unicode="&#x25b3;" horiz-adv-x="834" 
d="M-65 0l420 724l417 -724h-837zM354 525l-250 -430h498z" />
    <glyph glyph-name="lozenge" unicode="&#x25ca;" horiz-adv-x="586" 
d="M293 123l134 231l-134 232l-134 -232zM351 0h-116l-205 354l205 355h116l205 -355z" />
    <glyph glyph-name="circle" unicode="&#x25cb;" horiz-adv-x="831" 
d="M784 354c0 -205 -165 -370 -370 -370s-371 165 -371 370s166 371 371 371s370 -166 370 -371zM683 354c0 151 -120 273 -269 273c-150 0 -271 -122 -271 -273s121 -273 271 -273c149 0 269 122 269 273z" />
    <glyph glyph-name="H18533" unicode="&#x25cf;" horiz-adv-x="831" 
d="M43 354c0 205 165 371 370 371s371 -166 371 -371s-166 -370 -371 -370s-370 165 -370 370z" />
    <glyph glyph-name="uni262E" unicode="&#x262e;" horiz-adv-x="818" 
d="M771 355c0 -204 -164 -370 -368 -370c-203 0 -366 166 -366 370c0 203 163 369 366 369c204 0 368 -166 368 -369zM672 355c0 138 -95 249 -221 272v-215l195 -178c16 36 26 77 26 121zM133 355c0 -43 9 -84 26 -120l193 177v215c-125 -24 -219 -135 -219 -272zM451 81
c53 10 101 35 138 71l-138 128v-199zM215 154c37 -37 84 -62 137 -72v198z" />
    <glyph glyph-name="uni2713" unicode="&#x2713;" horiz-adv-x="816" 
d="M886 656l-627 -673l-288 321l73 68l219 -239l551 594z" />
    <glyph glyph-name="uni2715" unicode="&#x2715;" horiz-adv-x="781" 
d="M105 -5l-70 70l285 289l-285 288l71 70l283 -287l283 287l71 -70l-284 -288l287 -289l-70 -70l-286 289z" />
    <glyph glyph-name="uni2780" unicode="&#x2780;" horiz-adv-x="818" 
d="M37 355c0 203 163 369 366 369s368 -166 368 -369c0 -204 -165 -370 -368 -370s-366 166 -366 370zM119 355c0 -166 124 -294 284 -294c159 0 284 128 284 294c0 165 -125 293 -284 293c-160 0 -284 -128 -284 -293zM461 173h-91v232h-89v60c57 1 91 37 98 74h82v-366z
" />
    <glyph glyph-name="uni2781" unicode="&#x2781;" horiz-adv-x="818" 
d="M403 724c203 0 368 -166 368 -369c0 -204 -165 -370 -368 -370s-366 166 -366 370c0 203 163 369 366 369zM119 355c0 -166 124 -294 284 -294c159 0 284 128 284 294c0 165 -125 293 -284 293c-160 0 -284 -128 -284 -293zM348 344l60 36c26 16 40 35 40 57
c0 21 -15 44 -48 44c-32 0 -52 -21 -53 -51c0 -6 1 -17 3 -26h-84c-2 9 -3 20 -3 29c0 65 50 121 138 121c87 0 138 -55 138 -118c0 -47 -29 -84 -75 -112l-71 -43c-10 -6 -19 -15 -21 -25h169v-76h-281v15c0 62 25 112 88 149z" />
    <glyph glyph-name="uni2782" unicode="&#x2782;" horiz-adv-x="818" 
d="M37 355c0 203 163 369 366 369s368 -166 368 -369c0 -204 -165 -370 -368 -370s-366 166 -366 370zM119 355c0 -166 124 -294 284 -294c159 0 284 128 284 294c0 165 -125 293 -284 293c-160 0 -284 -128 -284 -293zM247 272l80 23c5 -33 32 -57 69 -57s61 21 61 48
c0 37 -30 51 -61 51c-12 0 -24 -2 -34 -6l-32 61l94 70h-164v75h279v-73l-94 -68c59 -7 103 -45 103 -110c0 -67 -58 -124 -151 -124c-89 0 -140 54 -150 110z" />
    <glyph glyph-name="uni2783" unicode="&#x2783;" horiz-adv-x="818" 
d="M37 355c0 203 163 369 366 369s368 -166 368 -369c0 -204 -165 -370 -368 -370s-366 166 -366 370zM119 355c0 -166 124 -294 284 -294c159 0 284 128 284 294c0 165 -125 293 -284 293c-160 0 -284 -128 -284 -293zM226 249v85l173 210h98v-222h62v-73h-62v-71h-90v71
h-181zM407 322v121l-98 -121h98z" />
    <glyph glyph-name="uni2784" unicode="&#x2784;" horiz-adv-x="818" 
d="M37 355c0 203 163 369 366 369s368 -166 368 -369c0 -204 -165 -370 -368 -370s-366 166 -366 370zM119 355c0 -166 124 -294 284 -294c159 0 284 128 284 294c0 165 -125 293 -284 293c-160 0 -284 -128 -284 -293zM247 263l79 26c6 -33 33 -53 66 -53c35 0 59 19 59 53
c0 38 -25 56 -60 56c-24 0 -44 -10 -58 -24l-74 25l47 188h214v-75h-158l-19 -74c17 18 45 25 72 25c76 0 126 -45 126 -119c0 -71 -53 -130 -149 -130c-77 0 -134 48 -145 102z" />
    <glyph glyph-name="uni2785" unicode="&#x2785;" horiz-adv-x="818" 
d="M37 355c0 203 163 369 366 369s368 -166 368 -369c0 -204 -165 -370 -368 -370s-366 166 -366 370zM119 355c0 -166 124 -294 284 -294c159 0 284 128 284 294c0 165 -125 293 -284 293c-160 0 -284 -128 -284 -293zM529 529l-18 -68c-19 8 -41 12 -64 12
c-57 0 -106 -29 -120 -92c19 22 53 37 88 37c75 0 130 -43 130 -122c0 -78 -65 -131 -152 -131c-81 0 -156 57 -156 168c0 132 88 214 204 214c32 0 64 -7 88 -18zM333 294c0 -35 29 -55 60 -55s60 20 60 55s-29 56 -60 56s-60 -21 -60 -56z" />
    <glyph glyph-name="uni2786" unicode="&#x2786;" horiz-adv-x="818" 
d="M37 355c0 203 163 369 366 369s368 -166 368 -369c0 -204 -165 -370 -368 -370s-366 166 -366 370zM119 355c0 -166 124 -294 284 -294c159 0 284 128 284 294c0 165 -125 293 -284 293c-160 0 -284 -128 -284 -293zM554 532v-78c-35 -26 -130 -109 -147 -289h-96
c15 190 131 291 131 291h-191v76h303z" />
    <glyph glyph-name="uni2787" unicode="&#x2787;" horiz-adv-x="818" 
d="M37 355c0 203 163 369 366 369s368 -166 368 -369c0 -204 -165 -370 -368 -370s-366 166 -366 370zM119 355c0 -166 124 -294 284 -294c159 0 284 128 284 294c0 165 -125 293 -284 293c-160 0 -284 -128 -284 -293zM403 392c32 0 50 19 50 43c0 21 -17 40 -50 40
s-51 -19 -51 -40c0 -24 19 -43 51 -43zM403 238c41 0 60 20 60 46c0 24 -20 44 -60 44s-61 -20 -61 -44c0 -26 20 -46 61 -46zM403 165c-96 0 -151 46 -151 109c0 39 28 73 71 87c-39 14 -60 47 -60 81c0 61 55 105 140 105s139 -44 139 -105c0 -34 -21 -67 -59 -81
c42 -14 71 -48 71 -85c0 -64 -54 -111 -151 -111z" />
    <glyph glyph-name="uni2788" unicode="&#x2788;" horiz-adv-x="818" 
d="M37 355c0 203 163 369 366 369s368 -166 368 -369c0 -204 -165 -370 -368 -370s-366 166 -366 370zM119 355c0 -166 124 -294 284 -294c159 0 284 128 284 294c0 165 -125 293 -284 293c-160 0 -284 -128 -284 -293zM273 181l17 70c19 -8 41 -13 64 -13
c58 0 109 26 119 92c-18 -23 -53 -37 -88 -37c-72 0 -131 44 -131 122c0 77 63 131 152 131c80 0 155 -57 155 -165c0 -141 -83 -217 -200 -217c-32 0 -64 6 -88 17zM464 416c0 35 -28 56 -61 56c-32 0 -60 -21 -60 -56s28 -56 60 -56c33 0 61 21 61 56z" />
    <glyph glyph-name="uniE000" unicode="&#xe000;" horiz-adv-x="776" 
d="M222 -16l-207 241h157v484h572v-100h-471v-384h156z" />
    <glyph glyph-name="uni21B5" unicode="&#xe001;" horiz-adv-x="1097" 
d="M239 122l-199 233h143c1 205 166 369 370 369c64 0 125 -16 177 -44l-45 -90c-40 22 -84 34 -131 34c-150 0 -270 -120 -270 -269h153zM921 354c-1 -204 -166 -369 -370 -369c-64 0 -124 16 -177 44l45 90c40 -22 84 -34 132 -34c149 0 268 120 268 269h-150l199 232
l199 -232h-146z" />
    <glyph glyph-name="uniE002" unicode="&#xe002;" horiz-adv-x="953" 
d="M531 354l198 232l199 -232h-142c0 -204 -165 -369 -370 -369c-204 0 -369 165 -369 369c0 205 165 370 369 370c61 0 118 -14 169 -40l-42 -91c-38 20 -81 31 -126 31c-150 0 -269 -120 -269 -270s119 -271 269 -271c149 0 268 121 268 271h-154z" />
    <glyph glyph-name="uniFB00" unicode="&#xfb00;" horiz-adv-x="652" 
d="M144 0h-117l82 387h-82l21 100h83l18 86c27 128 110 157 184 157c38 0 66 -11 73 -15l-21 -96v0c-2 0 -16 8 -41 8c-38 0 -70 -17 -81 -69l-16 -71h187l18 86c27 128 110 157 184 157c38 0 66 -11 73 -15l-21 -96v0c-2 0 -16.3682 8 -41 8c-38 0 -70 -17 -81 -69l-15 -71
h106l-21 -100h-107l-81 -387h-118l82 387h-186z" />
    <glyph glyph-name="fi" unicode="&#xfb01;" horiz-adv-x="612" 
d="M226 387l-82 -386.999h-117l82 387h-82l21 100h83l19 89c26 125 109 154 183 154c38 0 66 -11 73 -15l-21 -96c0 -0.0527344 -0.0439453 -0.078125 -0.131836 -0.078125c-1.58008 0 -17.2363 8.07715 -41.8682 8.07715c-40 0 -70 -20 -81 -72l-15 -68h316l-104 -487h-115
l82 387h-200zM465 653.001c0 46 40 82 83 82c40 0 68 -29 68 -66c0 -48 -41 -83 -83 -83c-40 0 -68 30 -68 67z" />
    <glyph glyph-name="fl" unicode="&#xfb02;" horiz-adv-x="610" 
d="M226 387l-82 -386.999h-117l82 387h-82l21 100h83l19 89c26 125 109 154 183 154c38 0 66 -11 73 -15l-21 -96c0 -0.0527344 -0.0439453 -0.078125 -0.131836 -0.078125c-1.58008 0 -17.2363 8.07715 -41.8682 8.07715c-40 0 -70 -20 -81 -72l-15 -68h200l51 237h115
l-154 -724h-115l82 387h-200z" />
    <glyph glyph-name="uniFB03" unicode="&#xfb03;" horiz-adv-x="909" 
d="M762 653c0 46 40 82 83 82c40 0 68 -29 68 -66c0 -48 -41 -83 -83 -83c-40 0 -68 30 -68 67zM144 0l-116.999 0.00195312l82 387h-82l21 100h83l18 86c27 128 110 157 184 157c38 0 66 -11 73 -15l-21 -96c0 -0.0527344 -0.0419922 -0.078125 -0.124023 -0.078125
c-1.48535 0 -16.2441 8.07715 -40.876 8.07715c-38 0 -70 -17 -81 -69l-16 -71h187l18 86c27 128 110 157 184 157c38 0 66 -11 73 -15l-21 -96c0 -0.0527344 -0.0419922 -0.078125 -0.125 -0.078125c-1.48535 0 -16.2441 8.07715 -40.876 8.07715c-38 0 -70 -17 -81 -69
l-15 -71h309l-104 -487h-115l83 387h-195l-81 -387h-118l82 387h-186z" />
    <glyph glyph-name="uniFB04" unicode="&#xfb04;" horiz-adv-x="914" 
d="M144 0l-116.999 0.00195312l82 387h-82l21 100h83l18 86c27 128 110 157 184 157c38 0 66 -11 73 -15l-21 -96c0 -0.0527344 -0.0419922 -0.078125 -0.124023 -0.078125c-1.48535 0 -16.2441 8.07715 -40.876 8.07715c-38 0 -70 -17 -81 -69l-16 -71h187l18 86
c27 128 110 157 184 157c38 0 66 -11 73 -15l-21 -96c0 -0.0527344 -0.0419922 -0.078125 -0.125 -0.078125c-1.48535 0 -16.2441 8.07715 -40.876 8.07715c-38 0 -70 -17 -81 -69l-15 -71h200l51 237h115l-154 -724h-115l82 387h-201l-81 -387h-118l82 387h-186z" />
    <glyph glyph-name="uniFEFF" unicode="&#xfeff;" horiz-adv-x="0" 
 />
    <glyph glyph-name="zero.numr" horiz-adv-x="415" 
d="M50 416c0 103 53 240 186 240c97 0 144 -64 144 -141c0 -116 -57 -241 -186 -241c-83 0 -144 56 -144 142zM137 418c0 -34 18 -66 61 -66c68 0 95 99 95 161c0 34 -14 66 -61 66c-75 0 -95 -116 -95 -161z" />
    <glyph glyph-name="one.numr" horiz-adv-x="298" 
d="M179 282h-91l53 238h-85l12 59c55 2 95 34 110 69h80z" />
    <glyph glyph-name="two.numr" horiz-adv-x="389" 
d="M162 453l64 28c36 16 52 34 52 59c0 19 -14 42 -45 42c-37 0 -60 -24 -60 -69l-84 3c0 85 60 139 147 139c88 0 133 -51 133 -110c0 -60 -40 -100 -102 -127l-76 -33c-20 -9 -27 -24 -28 -27h171l-16 -76h-278c5 80 46 138 122 171z" />
    <glyph glyph-name="three.numr" horiz-adv-x="427" 
d="M188 448l-27 64l111 62h-163l16 74h272l-17 -85l-108 -59c48 -10 82 -48 82 -99c0 -68 -61 -130 -153 -130c-82 0 -141 49 -141 119c0 5 1 12 2 16l82 6c-1 -5 -1 -8 -1 -10c0 -29 23 -56 58 -56c38 0 63 20 63 57c0 29 -24 46 -51 46c-10 0 -18 -2 -25 -5z" />
    <glyph glyph-name="four.numr" horiz-adv-x="430" 
d="M50 356l19 96l204 196h101l-47 -219h63l-16 -73h-62c0 -1 -6 -26 -16 -74h-89l15 74h-172zM237 429l28 122l-127 -122h99z" />
    <glyph glyph-name="five.numr" horiz-adv-x="402" 
d="M50 398l85 8c0 -30 19 -55 55 -55c30 0 61 19 61 59c0 32 -24 49 -53 49c-19 0 -35 -7 -46 -16l-73 37l74 168h219l-16 -75h-155l-28 -62c15 9 38 12 54 12c68 0 114 -39 114 -106c0 -78 -64 -142 -152 -142c-82 0 -139 52 -139 123z" />
    <glyph glyph-name="six.numr" horiz-adv-x="391" 
d="M382 631l-31 -67c-18 10 -41 17 -75 17c-47 0 -98 -26 -118 -76c18 17 49 23 73 23c72 0 116 -44 116 -109c0 -90 -75 -145 -156 -145c-76 0 -141 53 -141 149c0 133 98 232 227 232c41 0 78 -7 105 -24zM205 459c-33 0 -64 -23 -64 -60c0 -31 23 -51 54 -51
c30 0 62 21 62 63c0 28 -21 48 -52 48z" />
    <glyph glyph-name="seven.numr" horiz-adv-x="364" 
d="M385 648l-16 -74c-51 -36 -161 -119 -213 -292h-95c43 175 183 281 198 290h-186l15 76h297z" />
    <glyph glyph-name="eight.numr" horiz-adv-x="398" 
d="M183 539c0 -20 17 -37 41 -37c28 0 55 16 55 46c0 18 -13 37 -44 37c-32 0 -52 -20 -52 -46zM141 385c0 -26 25 -41 53 -41c38 0 61 21 61 51c0 21 -16 41 -53 41s-61 -24 -61 -51zM193 274c-95 0 -143 44 -143 101c0 46 38 85 95 98c-29 11 -48 43 -48 70
c0 64 56 113 144 113c80 0 127 -41 127 -96c0 -40 -29 -78 -78 -94c30 -10 54 -43 54 -74c0 -70 -66 -118 -151 -118z" />
    <glyph glyph-name="nine.numr" horiz-adv-x="409" 
d="M45 305l32 67c22 -15 51 -23 83 -23c45 0 98 25 112 79c-18 -18 -47 -27 -71 -27c-71 0 -121 45 -121 111c0 87 72 142 155 142c77 0 139 -50 139 -144c0 -141 -85 -237 -217 -237c-43 0 -84 13 -112 32zM220 468c34 0 61 26 61 63c0 30 -23 50 -50 50
c-32 0 -61 -23 -61 -63c0 -30 21 -50 50 -50z" />
    <glyph glyph-name="zero.dnom" horiz-adv-x="415" 
d="M30 134c0 103 53 240 186 240c97 0 144 -64 144 -141c0 -116 -57 -241 -186 -241c-83 0 -144 56 -144 142zM117 136c0 -34 18 -66 61 -66c68 0 95 99 95 161c0 34 -14 66 -61 66c-75 0 -95 -116 -95 -161z" />
    <glyph glyph-name="one.dnom" horiz-adv-x="298" 
d="M149 0h-91l53 238h-85l12 59c55 2 95 34 110 69h80z" />
    <glyph glyph-name="two.dnom" horiz-adv-x="382" 
d="M122 171l64 28c36 16 52 34 52 59c0 19 -14 42 -45 42c-37 0 -60 -24 -60 -69l-84 3c0 85 60 139 147 139c88 0 133 -51 133 -110c0 -60 -40 -100 -102 -127l-76 -33c-20 -9 -27 -24 -28 -27h171l-16 -76h-278c5 80 46 138 122 171z" />
    <glyph glyph-name="three.dnom" horiz-adv-x="427" 
d="M148 167l-27 64l111 62h-163l16 74h272l-17 -85l-108 -59c48 -10 82 -48 82 -99c0 -68 -61 -130 -153 -130c-82 0 -141 49 -141 119c0 5 1 12 2 16l82 6c-1 -5 -1 -8 -1 -10c0 -29 23 -56 58 -56c38 0 63 20 63 57c0 29 -24 46 -51 46c-10 0 -18 -2 -25 -5z" />
    <glyph glyph-name="four.dnom" horiz-adv-x="430" 
d="M5 74l19 96l204 196h101l-47 -219h63l-16 -73h-62c0 -1 -6 -26 -16 -74h-89l15 74h-172zM192 147l28 122l-127 -122h99z" />
    <glyph glyph-name="five.dnom" horiz-adv-x="402" 
d="M10 116l85 8c0 -30 19 -55 55 -55c30 0 61 19 61 59c0 32 -24 49 -53 49c-19 0 -35 -7 -46 -16l-73 37l74 168h219l-16 -75h-155l-28 -62c15 9 38 12 54 12c68 0 114 -39 114 -106c0 -78 -64 -142 -152 -142c-82 0 -139 52 -139 123z" />
    <glyph glyph-name="six.dnom" horiz-adv-x="391" 
d="M342 350l-31 -67c-18 10 -41 17 -75 17c-47 0 -98 -26 -118 -76c18 17 49 23 73 23c72 0 116 -44 116 -109c0 -90 -75 -145 -156 -145c-76 0 -141 53 -141 149c0 133 98 232 227 232c41 0 78 -7 105 -24zM165 178c-33 0 -64 -23 -64 -60c0 -31 23 -51 54 -51
c30 0 62 21 62 63c0 28 -21 48 -52 48z" />
    <glyph glyph-name="seven.dnom" horiz-adv-x="364" 
d="M343 366l-16 -74c-51 -36 -161 -119 -213 -292h-95c43 175 183 281 198 290h-186l15 76h297z" />
    <glyph glyph-name="eight.dnom" horiz-adv-x="398" 
d="M143 257c0 -20 17 -37 41 -37c28 0 55 16 55 46c0 18 -13 37 -44 37c-32 0 -52 -20 -52 -46zM101 103c0 -26 25 -41 53 -41c38 0 61 21 61 51c0 21 -16 41 -53 41s-61 -24 -61 -51zM153 -8c-95 0 -143 44 -143 101c0 46 38 85 95 98c-29 11 -48 43 -48 70
c0 64 56 113 144 113c80 0 127 -41 127 -96c0 -40 -29 -78 -78 -94c30 -10 54 -43 54 -74c0 -70 -66 -118 -151 -118z" />
    <glyph glyph-name="nine.dnom" horiz-adv-x="409" 
d="M10 24l32 67c22 -15 51 -23 83 -23c45 0 98 25 112 79c-18 -18 -47 -27 -71 -27c-71 0 -121 45 -121 111c0 87 72 142 155 142c77 0 139 -50 139 -144c0 -141 -85 -237 -217 -237c-43 0 -84 13 -112 32zM185 187c34 0 61 26 61 63c0 30 -23 50 -50 50
c-32 0 -61 -23 -61 -63c0 -30 21 -50 50 -50z" />
    <glyph glyph-name="space.frac" horiz-adv-x="52" 
 />
    <glyph glyph-name="a.ordn" horiz-adv-x="459" 
d="M238 577c-61 0 -94 -65 -94 -122c0 -49 26 -79 69 -79c50 0 92 48 92 126c0 46 -24 75 -67 75zM340 649h87l-56 -267c-4 -21 -6 -44 -6 -59v-18h-83c-1 11 -1 13 -1 18c0 6 0 13 1 24c-16 -24 -47 -48 -93 -48c-84 0 -134 68 -134 152c0 116 75 206 176 206
c63 0 91 -29 100 -48z" />
    <glyph glyph-name="b.ordn" horiz-adv-x="487" 
d="M168 305h-87l106 507h89l-40 -191c19 21 54 35 94 35c87 0 133 -64 133 -143c0 -126 -76 -216 -180 -216c-54 0 -91 28 -105 57zM298 577c-53 0 -95 -51 -95 -120c0 -50 29 -81 71 -81c46 0 98 42 98 122c0 53 -29 79 -74 79z" />
    <glyph glyph-name="c.ordn" horiz-adv-x="426" 
d="M395 544l-81 -24c-6 29 -29 57 -73 57c-47 0 -98 -40 -98 -119c0 -52 33 -82 79 -82c42 0 66 26 80 52l74 -29c-29 -62 -86 -105 -159 -105c-92 0 -163 65 -163 161c0 124 91 204 194 204c93 0 137 -60 147 -115z" />
    <glyph glyph-name="d.ordn" horiz-adv-x="456" 
d="M238 577c-61 0 -94 -65 -94 -122c0 -49 26 -79 69 -79c50 0 92 48 92 126c0 46 -24 75 -67 75zM282 347c-16 -24 -47 -48 -93 -48c-84 0 -134 68 -134 152c0 116 75 206 176 206c58 0 87 -26 99 -45l42 200h90l-91 -430c-4 -21 -6 -44 -6 -59v-18h-83c-1 9 -1 15 -1 18
c0 4 0 11 1 24z" />
    <glyph glyph-name="e.ordn" horiz-adv-x="419" 
d="M143 516h154c1 0 1 6 1 9c0 26 -17 60 -66 60c-48 0 -77 -32 -89 -69zM374 453h-240c0 -59 38 -83 77 -83c40 0 67 22 80 46l69 -35c-23 -45 -75 -86 -153 -86c-86 0 -158 60 -158 158c0 127 92 206 185 206c96 0 149 -60 149 -144c0 -21 -4 -45 -9 -62z" />
    <glyph glyph-name="f.ordn" horiz-adv-x="335" 
d="M313 572h-74l-56 -267h-91l57 267h-58l17 77h58l13 57c18 85 74 111 133 111c24 0 46 -7 55 -12l-16 -74c-7 3 -18 6 -31 6c-28 0 -48 -15 -55 -48l-9 -40h74z" />
    <glyph glyph-name="g.ordn" horiz-adv-x="463" 
d="M338 507c0 37 -25 70 -69 70c-52 0 -91 -41 -91 -104c0 -43 24 -74 70 -74c50 0 90 41 90 108zM46 292l80 16c0 -36 23 -69 75 -69c54 0 89 35 102 97l5 24c-13 -19 -42 -36 -81 -36c-87 0 -140 61 -140 143c0 105 74 189 174 189c54 0 87 -23 101 -48l9 41h89l-66 -314
c-19 -92 -77 -173 -193 -173c-106 0 -155 67 -155 130z" />
    <glyph glyph-name="h.ordn" horiz-adv-x="456" 
d="M367 305h-90l43 200c1 7 2 14 2 20c0 32 -18 53 -54 53c-41 0 -67 -34 -75 -74l-42 -199h-90l107 507h90l-40 -191c22 26 56 37 91 37c69 0 107 -45 107 -108c0 -12 -2 -24 -4 -36z" />
    <glyph glyph-name="i.ordn" horiz-adv-x="261" 
d="M155 759c0 35 29 61 62 61c30 0 50 -22 50 -49c0 -36 -30 -61 -61 -61c-30 0 -51 22 -51 49zM159 305h-89l73 344h90z" />
    <glyph glyph-name="j.ordn" horiz-adv-x="271" 
d="M93 281l79 368h89l-82 -389c-14 -65 -58 -98 -114 -98c-33 0 -56 11 -61 14l15 71c1 0 14 -6 32 -6c23 0 37 12 42 40zM184 759c0 35 28 61 62 61c29 0 50 -22 50 -49c0 -36 -30 -61 -62 -61c-29 0 -50 22 -50 49z" />
    <glyph glyph-name="k.ordn" horiz-adv-x="432" 
d="M287 305l-67 140l-54 -46l-20 -94h-89l107 507h90l-61 -286l140 123h126l-170 -145l98 -199h-100z" />
    <glyph glyph-name="l.ordn" horiz-adv-x="246" 
d="M150 305h-89l108 507h89z" />
    <glyph glyph-name="m.ordn" horiz-adv-x="665" 
d="M363 305h-90l43 204c1 7 2 13 2 20c0 28 -17 50 -51 50c-39 0 -62 -30 -71 -72l-44 -202h-89l59 285c7 32 8 54 8 59h88c0 -3 -1 -21 -3 -35c23 30 57 44 94 44c44 0 75 -21 90 -52c36 45 83 52 118 52c61 0 105 -45 105 -108c0 -14 -2 -23 -4 -34l-45 -211h-90l43 204
c1 7 2 13 2 20c0 28 -17 50 -51 50c-39 0 -62 -30 -71 -71z" />
    <glyph glyph-name="n.ordn" horiz-adv-x="456" 
d="M374 305h-90l43 200c1 7 2 14 2 20c0 32 -18 53 -54 53c-41 0 -67 -34 -75 -74l-42 -199h-90l59 285c7 32 8 54 8 59h88c0 -4 -1 -22 -3 -35c23 31 61 44 97 44c68 0 105 -45 105 -108c0 -11 -1 -24 -3 -36z" />
    <glyph glyph-name="o.ordn" horiz-adv-x="441" 
d="M240 577c-53 0 -95 -50 -95 -119c0 -51 30 -82 72 -82c46 0 96 40 96 120c0 51 -28 81 -73 81zM403 500c0 -112 -79 -205 -191 -205c-96 0 -157 70 -157 159c0 121 86 205 192 205c98 0 156 -71 156 -159z" />
    <glyph glyph-name="p.ordn" horiz-adv-x="479" 
d="M288 577c-53 0 -95 -51 -95 -120c0 -53 29 -81 72 -81c45 0 97 42 97 122c0 52 -31 79 -74 79zM222 612c20 26 57 44 98 44c89 0 133 -65 133 -148c0 -117 -73 -211 -180 -211c-51 0 -89 23 -106 51l-37 -176h-89l89 418c7 32 7 54 7 59h87c0 -3 0 -24 -2 -37z" />
    <glyph glyph-name="q.ordn" horiz-adv-x="469" 
d="M431 649l-101 -478h-90l34 160c-19 -19 -46 -32 -81 -32c-84 0 -136 68 -136 152c0 116 76 205 176 205c62 0 91 -28 102 -47l9 40h87zM241 577c-61 0 -94 -64 -94 -122c0 -49 27 -79 71 -79c49 0 91 48 91 124c0 47 -24 77 -68 77z" />
    <glyph glyph-name="r.ordn" horiz-adv-x="289" 
d="M310 557c-10 3 -20 4 -30 4c-44 0 -88 -20 -104 -97l-34 -159h-89l60 285c7 32 7 54 7 59h88c0 -7 -1 -30 -5 -44c26 36 64 46 97 46c11 0 21 -1 29 -3z" />
    <glyph glyph-name="s.ordn" horiz-adv-x="377" 
d="M56 411l76 14c0 -34 18 -62 56 -62c31 0 45 18 45 36c0 12 -7 24 -27 33l-40 18c-50 22 -71 54 -71 95c0 60 51 114 130 114c101 0 126 -66 127 -105l-77 -13c0 21 -14 50 -53 50c-26 0 -43 -16 -43 -35c0 -15 9 -25 23 -31l44 -19c52 -23 75 -58 75 -100
c0 -51 -42 -111 -131 -111c-112 0 -134 76 -134 116z" />
    <glyph glyph-name="t.ordn" horiz-adv-x="310" 
d="M226 569l-31 -148c-1 -5 -2 -10 -2 -14c0 -21 14 -29 37 -29c9 0 19 1 24 2l-15 -72c-5 -2 -20 -7 -43 -7c-58 0 -95 33 -95 86c0 8 1 18 3 28l32 154h-61l17 80h14c39 0 59 21 67 55l11 48h81l-22 -103h67l-17 -80h-67z" />
    <glyph glyph-name="u.ordn" horiz-adv-x="428" 
d="M109 649h89l-42 -197c-2 -9 -3 -16 -3 -24c0 -31 16 -52 53 -52c39 0 65 33 73 72l42 201h89l-56 -272c-8 -40 -8 -65 -8 -72h-86c-1 9 -1 16 -1 18c0 4 0 8 1 18c-19 -29 -55 -44 -87 -44c-73 0 -112 48 -112 113c0 12 1 24 4 37z" />
    <glyph glyph-name="v.ordn" horiz-adv-x="380" 
d="M411 649l-201 -344h-88l-61 344h93l31 -233l126 233h100z" />
    <glyph glyph-name="w.ordn" horiz-adv-x="587" 
d="M281 649h96l27 -225l108 225h93l-177 -344h-89l-30 237l-122 -237h-93l-34 344h88l17 -224z" />
    <glyph glyph-name="x.ordn" horiz-adv-x="414" 
d="M232 410l-94 -105h-109l163 176c-13 26 -76 141 -90 168h99c9 -19 41 -84 51 -102l90 102h110c-25 -27 -135 -147 -161 -173l92 -171h-98z" />
    <glyph glyph-name="y.ordn" horiz-adv-x="399" 
d="M144 172h-100l120 188l-77 289h96l47 -196l118 196h101z" />
    <glyph glyph-name="z.ordn" horiz-adv-x="409" 
d="M333 305h-284l17 80l202 186h-157l16 78h275l-16 -77l-207 -189h171z" />
    <glyph glyph-name="space.tf" 
 />
    <glyph glyph-name="numbersign.tf" 
d="M46 400v87h105l34 161h95l-35 -161h108l35 161h95l-35 -161h91v-87h-109l-32 -149h91v-87h-110l-35 -164h-95l35 164h-108l-35 -164h-95l35 164h-84v87h103l32 149h-86zM227 400l-32 -149h108l32 149h-108z" />
    <glyph glyph-name="dollar.tf" 
d="M148 -109l24 111c-111 30 -156 123 -156 199c0 8 0 19 1 19l106 17c-1 -6 -1 -12 -1 -17c0 -48 21 -97 70 -119l39 186l-11 6c-77 37 -120 89 -120 168c0 109 92 190 210 195l21 101h92l-23 -112c103 -30 136 -117 136 -173l-105 -19c0 21 -8 68 -53 92l-39 -188l7 -3
c88 -43 129 -98 129 -171c0 -99 -82 -188 -213 -192l-21 -100h-93zM211 471c0 -32 14 -55 44 -73l33 158c-47 -9 -77 -44 -77 -85zM362 175c0 28 -15 50 -46 70l-33 -153c49 9 78 39 79 83z" />
    <glyph glyph-name="percent.tf" 
d="M238 530c0 31 -20 52 -52 52c-33 0 -65 -28 -65 -70c0 -29 20 -53 52 -53c33 0 65 27 65 71zM193 658c71 0 125 -55 125 -124c0 -87 -76 -149 -152 -149c-72 0 -124 53 -124 122c0 85 71 151 151 151zM545 543l-21 -99l-500 -324l21 98zM434 140c0 31 -19 52 -51 52
c-33 0 -65 -28 -65 -69c0 -31 19 -53 51 -53c33 0 65 27 65 70zM514 144c0 -86 -75 -149 -152 -149c-71 0 -123 53 -123 123c0 84 70 150 151 150c71 0 124 -55 124 -124z" />
    <glyph glyph-name="plus.tf" 
d="M313 244v-197h-99v197h-188v95h188v195h99v-195h189v-95h-189z" />
    <glyph glyph-name="comma.tf" 
d="M154 71c0 57 45 98 102 98c56 0 96 -41 96 -103c0 -133 -106 -245 -243 -253l15 69c58 9 121 57 134 117c-5 -2 -16 -5 -26 -5c-46 0 -78 32 -78 77z" />
    <glyph glyph-name="period.tf" 
d="M226 -7c-51 0 -85 39 -85 83c0 54 46 101 103 101c52 0 84 -38 84 -82c0 -56 -46 -102 -102 -102z" />
    <glyph glyph-name="zero.tf" 
d="M129 228c0 -71 22 -136 109 -136c130 0 174 223 174 332c0 70 -21 133 -109 133c-146 0 -174 -254 -174 -329zM231 -15c-153 1 -220 108 -220 237c0 167 75 441 300 441c153 0 220 -110 220 -238c0 -184 -85 -440 -300 -440z" />
    <glyph glyph-name="one.tf" 
d="M27 104h165l75 349h-150l17 78c82 5 160 51 188 117h104l-115 -544h180l-22 -104h-463z" />
    <glyph glyph-name="two.tf" 
d="M-30 0c1 6 4 21 4 27c22 113 81 203 207 261l120 55c52 24 109 60 109 126c0 46 -30 90 -100 90c-78 0 -125 -56 -125 -145v-8l-114 11v6c0 133 93 240 245 240c146 0 214 -84 214 -186c0 -105 -67 -174 -170 -222l-140 -64c-32 -15 -70 -43 -89 -85h334l-23 -106h-472z
" />
    <glyph glyph-name="three.tf" 
d="M208 305l-42 98l216 140h-300l21 105h450l-26 -125l-204 -133c82 -9 151 -73 151 -172c0 -120 -98 -233 -252 -233c-150 0 -231 102 -231 207c0 7 0 14 2 23l117 13c-1 -8 -2 -15 -2 -22c0 -62 41 -117 115 -117s129 50 129 123c0 70 -54 99 -106 99c-13 0 -27 -3 -38 -6
z" />
    <glyph glyph-name="four.tf" 
d="M-14 142l27 132l352 374h149l-87 -400h99l-22 -106h-99l-28 -142h-118l28 142h-301zM310 248l59 271l-252 -271h193z" />
    <glyph glyph-name="five.tf" 
d="M8 193v6l114 22c-1 -6 -1 -12 -1 -14c0 -60 37 -119 116 -119c67 0 130 46 130 133c0 66 -45 105 -110 105c-42 0 -73 -14 -97 -34l-103 56l137 300h357l-22 -105h-271l-68 -145c28 17 63 25 99 25c121 0 200 -71 200 -189c0 -136 -102 -249 -254 -249
c-135 0 -227 92 -227 208z" />
    <glyph glyph-name="six.tf" 
d="M574 625l-47 -93c-34 17 -76 26 -119 26c-117 0 -211 -70 -245 -185c32 33 84 57 145 57c126 0 202 -77 202 -189c0 -155 -121 -256 -260 -256c-126 0 -229 91 -229 246c0 228 151 429 391 429c65 0 127 -12 162 -35zM275 331c-75 0 -133 -54 -133 -131
c0 -65 47 -112 113 -112c68 0 132 50 132 136c0 65 -43 107 -112 107z" />
    <glyph glyph-name="seven.tf" 
d="M43 543l22 105h509l-22 -105c-64 -43 -282 -208 -381 -543h-126c92 353 343 526 367 543h-369z" />
    <glyph glyph-name="eight.tf" 
d="M298 376c68 0 117 44 117 105c0 43 -33 84 -95 84c-77 0 -119 -48 -119 -105c0 -43 32 -84 97 -84zM127 175c0 -56 46 -92 113 -92c73 0 127 48 127 110c0 50 -35 93 -111 93s-129 -48 -129 -111zM485 186c0 -125 -116 -201 -253 -201s-224 72 -224 178
c0 84 61 152 160 173c-43 19 -83 72 -83 130c0 119 106 197 238 197c137 0 212 -75 212 -167c0 -79 -53 -146 -142 -170c58 -21 92 -80 92 -140z" />
    <glyph glyph-name="nine.tf" 
d="M152 428c0 -64 44 -107 111 -107c75 0 129 54 129 130c0 66 -47 109 -110 109c-66 0 -130 -47 -130 -132zM-35 38l48 92c42 -28 89 -38 135 -38c121 0 211 78 231 196c-29 -39 -78 -65 -145 -65c-115 0 -203 78 -203 196c0 152 121 244 257 244c131 0 230 -84 230 -245
c0 -255 -143 -433 -371 -433c-65 0 -135 16 -182 53z" />
    <glyph glyph-name="colon.tf" 
d="M210 -10c-48 0 -79 36 -79 77c0 51 42 95 96 95c47 0 78 -34 78 -77c0 -52 -44 -95 -95 -95zM281 324c-48 0 -79 35 -79 77c0 51 42 94 96 94c48 0 78 -34 78 -76c0 -53 -43 -95 -95 -95z" />
    <glyph glyph-name="semicolon.tf" 
d="M140 67c0 52 42 89 94 89s88 -37 88 -95c0 -121 -97 -224 -222 -232l13 64c53 8 111 52 123 107c-4 -2 -15 -4 -24 -4c-42 0 -72 29 -72 71zM290 325c-48 0 -80 36 -80 77c0 52 44 95 97 95c49 0 79 -35 79 -76c0 -54 -44 -96 -96 -96z" />
    <glyph glyph-name="less.tf" 
d="M61 244v94l422 212v-111l-302 -147l302 -148v-111z" />
    <glyph glyph-name="equal.tf" 
d="M29 343v94h475v-94h-475zM29 146v95h475v-95h-475z" />
    <glyph glyph-name="greater.tf" 
d="M483 338v-94l-422 -211v110l303 148l-303 147v112z" />
    <glyph glyph-name="cent.tf" 
d="M171 0l20 97c-86 29 -138 104 -138 198c0 153 106 257 237 268l18 86h90l-20 -93c81 -22 120 -85 132 -139l-100 -31c-7 28 -24 55 -53 69l-58 -273c48 8 76 42 94 75l92 -37c-33 -68 -101 -132 -206 -135l-18 -85h-90zM163 297c0 -45 18 -80 49 -99l56 264
c-56 -17 -105 -72 -105 -165z" />
    <glyph glyph-name="sterling.tf" horiz-adv-x="595" 
d="M44 273l20 95h71c-5 23 -9 47 -9 75c0 120 82 220 218 220c125 0 187 -72 187 -165c0 -13 -2 -26 -4 -30l-108 -14c2 7 3 17 3 27c0 44 -27 82 -83 82c-57 0 -101 -38 -101 -117c0 -25 5 -52 10 -78h184l-20 -95h-154c-5 -73 -47 -139 -120 -170h184c62 0 98 44 106 97
l103 -20c-19 -110 -98 -180 -204 -180h-345l23 113c90 21 135 89 140 160h-101z" />
    <glyph glyph-name="currency.tf" 
d="M57 242c0 42 12 81 33 114l-74 75l72 71l74 -76c32 19 70 30 110 30c38 0 75 -10 106 -28l73 74l71 -71l-70 -72c22 -33 35 -74 35 -117s-13 -83 -34 -116l69 -70l-70 -70l-72 72c-32 -19 -69 -29 -108 -29c-41 0 -79 11 -112 31l-73 -74l-71 70l73 74
c-21 32 -32 71 -32 112zM156 242c0 -68 50 -117 116 -117s115 49 115 117s-49 117 -115 117s-116 -49 -116 -117z" />
    <glyph glyph-name="yen.tf" 
d="M36 302l18 83h108l-96 263h128l82 -252l183 252h134l-204 -263h112l-17 -83h-169l-16 -74h169l-19 -85h-167l-30 -143h-115l30 143h-165l19 85h163l16 74h-164z" />
    <glyph glyph-name="section.tf" 
d="M7 1l111 8c-2 -9 -4 -20 -4 -34c0 -51 32 -84 90 -84c48 0 94 32 94 88c0 25 -13 48 -35 64l-90 63c-57 40 -105 86 -105 155c0 81 59 125 110 144c-38 34 -56 75 -56 123c0 121 112 195 220 195c127 0 193 -75 193 -165c0 -13 -1 -26 -4 -39l-112 -9c3 12 4 24 4 34
c0 51 -32 83 -89 83c-49 0 -95 -35 -95 -87c0 -26 13 -47 37 -64l89 -63c56 -40 105 -83 105 -152c0 -82 -59 -129 -109 -148c36 -34 55 -77 55 -121c0 -123 -111 -197 -222 -197c-124 0 -190 74 -190 166c0 12 0 26 3 40zM322 299l-88 63c-30 -14 -55 -41 -55 -79
c0 -24 10 -44 36 -63l89 -63c29 14 55 41 55 79c0 24 -11 44 -37 63z" />
    <glyph glyph-name="logicalnot.tf" 
d="M495 142h-101v195h-356v97h457v-292z" />
    <glyph glyph-name="plusminus.tf" 
d="M317 311v-128h-99v128h-177v94h177v129h99v-129h178v-94h-178zM41 47v96h454v-96h-454z" />
    <glyph glyph-name="multiply.tf" 
d="M111 51l-69 69l168 172l-167 171l69 69l166 -171l166 171l69 -69l-167 -171l168 -172l-69 -69l-167 171z" />
    <glyph glyph-name="divide.tf" 
d="M23 243v98h474v-98h-474zM186 111c0 39 33 72 73 72c39 0 71 -33 71 -72s-32 -72 -71 -72c-40 0 -73 33 -73 72zM186 473c0 39 33 71 73 71c39 0 71 -32 71 -71s-32 -73 -71 -73c-40 0 -73 34 -73 73z" />
    <glyph glyph-name="florin.tf" 
d="M147 24l73 364h-103v99h123l21 101c22 107 100 152 177 152c44 0 64 -6 83 -12v-101c-17 5 -33 8 -57 8c-31 0 -76 -12 -91 -84l-13 -64h122v-99h-142l-80 -401c-22 -107 -101 -152 -178 -152c-44 0 -61 5 -85 12v101c16 -4 36 -7 61 -7c31 0 75 10 89 83z" />
    <glyph glyph-name="uni2007.tf" 
 />
    <glyph glyph-name="uni2008.tf" 
 />
    <glyph glyph-name="perthousand.tf" 
d="M174 105c0 -25 17 -44 43 -44c24 0 53 21 53 54c0 27 -12 48 -43 48c-27 0 -53 -24 -53 -58zM40 527c0 74 60 131 131 131c64 0 110 -48 110 -109c0 -76 -63 -131 -132 -131c-64 0 -109 48 -109 109zM210 -8c-63 0 -109 47 -109 108c0 74 62 133 133 133
c34 0 61 -14 78 -37c22 23 53 37 88 37c63 0 110 -48 110 -109c0 -77 -64 -132 -131 -132c-36 0 -64 14 -81 36c-24 -23 -55 -36 -88 -36zM536 586l-21 -101l-498 -310l21 100zM436 120c0 25 -16 43 -43 43c-26 0 -50 -22 -52 -53c0 -2 0 -4 -1 -6c1 -25 17 -43 43 -43
c27 0 53 22 53 59zM165 589c-27 0 -53 -24 -53 -58c0 -25 16 -44 42 -44c27 0 54 22 54 59c0 25 -17 42 -43 43z" />
    <glyph glyph-name="Euro.tf" 
d="M45 359l19 87h73c58 128 182 218 332 218c77 0 113 -16 146 -32l-50 -95c-19 10 -53 23 -106 23c-70 0 -151 -35 -199 -114h258l-45 -87h-246c-5 -22 -8 -46 -8 -72h223l-44 -88h-164c31 -72 102 -107 185 -107c24 0 42 3 56 6l6 -101c-21 -6 -47 -11 -77 -11
c-136 0 -257 79 -292 213h-101l19 88h72c0 24 3 48 7 72h-64z" />
    <glyph glyph-name="minus.tf" 
d="M39 244v96h451v-96h-451z" />
    <glyph glyph-name="approxequal.tf" 
d="M426 250l61 -53c-36 -59 -93 -92 -155 -92c-34 0 -68 10 -104 30l-47 26c-19 10 -39 15 -58 15c-32 0 -63 -15 -88 -46l-64 54c38 61 92 93 153 93c35 0 69 -10 106 -30l47 -25c21 -11 42 -18 63 -18c32 0 62 15 86 46zM426 447l61 -52c-36 -59 -93 -92 -155 -92
c-34 0 -68 10 -104 30l-47 26c-19 10 -39 15 -58 15c-32 0 -63 -15 -88 -46l-64 54c38 61 92 93 153 93c35 0 69 -10 106 -30l47 -25c21 -12 42 -18 63 -18c32 0 62 15 86 45z" />
    <glyph glyph-name="notequal.tf" 
d="M32 343v94h292l66 95h109l-66 -95h74v-94h-138l-71 -102h209v-95h-274l-68 -98h-109l68 98h-92v95h157l71 102h-228z" />
    <glyph glyph-name="lessequal.tf" 
d="M62 47v96h422v-96h-422zM62 311v97l422 141v-99l-292 -89l292 -91v-99z" />
    <glyph glyph-name="greaterequal.tf" 
d="M472 143v-96h-422v96h422zM472 408v-97l-422 -140v98l292 90l-292 90v100z" />
    <glyph glyph-name="parenleft.case" horiz-adv-x="304" 
d="M29 247c0 231 103 429 306 556l53 -68c-159 -114 -263 -257 -263 -488c0 -110 37 -215 94 -302l-75 -53c-60 83 -115 212 -115 355z" />
    <glyph glyph-name="parenright.case" horiz-adv-x="305" 
d="M275 448c0 -231 -108 -425 -306 -556l-53 68c152 118 263 257 263 488c0 110 -37 215 -94 302l75 53c60 -83 115 -212 115 -355z" />
    <glyph glyph-name="hyphen.case" horiz-adv-x="362" 
d="M307 291h-282l22 103h281z" />
    <glyph glyph-name="bracketleft.case" horiz-adv-x="305" 
d="M204 -100h-214l193 910h213l-18 -90h-116l-155 -730h115z" />
    <glyph glyph-name="bracketright.case" horiz-adv-x="308" 
d="M122 -100h-213l18 90h116l155 730h-116l19 90h214z" />
    <glyph glyph-name="braceleft.case" horiz-adv-x="362" 
d="M31 306l21 100c57 0 112 24 127 95l25 117c30 146 107 190 225 190h25l-19 -89h-22c-57 0 -95 -27 -110 -96l-31 -144c-14 -66 -58 -116 -129 -127c50 -12 76 -52 76 -103c0 -11 -2 -25 -4 -35l-26 -126c-2 -10 -4 -22 -4 -32c0 -47 28 -66 75 -66h20l-19 -89h-21
c-95 0 -153 52 -153 142c0 16 3 40 6 53l23 112c1 6 3 18 3 26c0 51 -39 72 -88 72z" />
    <glyph glyph-name="braceright.case" horiz-adv-x="363" 
d="M331 403l-21 -100c-56 0 -113 -24 -127 -95l-24 -117c-30 -146 -109 -190 -226 -190h-25l19 89h22c57 0 96 25 111 96l31 144c14 66 58 117 128 127c-49 13 -76 53 -76 104c0 11 1 22 4 34l26 126c2 9 4 23 4 33c0 46 -28 65 -75 65h-20l19 89h22c94 0 152 -52 152 -142
c0 -16 -2 -34 -6 -53l-23 -112c-2 -10 -3 -18 -3 -26c0 -51 39 -72 88 -72z" />
    <glyph glyph-name="exclamdown.case" horiz-adv-x="307" 
d="M223 499l-75 -499h-143l135 499h83zM282 651c0 -44 -36 -81 -81 -81c-40 0 -66 29 -66 65c0 45 38 81 79 81c40 0 68 -28 68 -65z" />
    <glyph glyph-name="guillemotleft.case" horiz-adv-x="501" 
d="M217 150h-108l-99 196l174 191h119l-180 -200zM425 150h-108l-99 196l174 191h119l-180 -200z" />
    <glyph glyph-name="uni00AD.case" horiz-adv-x="362" 
d="M310 302h-282l22 103h281z" />
    <glyph glyph-name="guillemotright.case" horiz-adv-x="506" 
d="M49 537h108l99 -196l-174 -191h-119l181 200zM266 537h108l99 -196l-174 -191h-119l181 200z" />
    <glyph glyph-name="questiondown.case" horiz-adv-x="503" 
d="M248 501h97c-3 -71 -28 -141 -113 -190l-54 -31c-45 -25 -66 -61 -66 -103c0 -44 28 -86 96 -86c87 0 128 69 128 142l111 -13c-3 -134 -101 -234 -248 -234c-138 0 -208 85 -208 173c0 101 58 163 137 208l50 29c46 26 66 61 70 105zM385 652c0 -44 -35 -81 -80 -81
c-41 0 -67 29 -67 65c0 45 39 81 80 81c40 0 67 -28 67 -65z" />
    <glyph glyph-name="endash.case" horiz-adv-x="633" 
d="M552 292h-514l21 101h514z" />
    <glyph glyph-name="emdash.case" horiz-adv-x="1085" 
d="M994 292h-946l21 101h946z" />
    <glyph glyph-name="guilsinglleft.case" horiz-adv-x="293" 
d="M217 150h-108l-99 196l174 191h119l-180 -200z" />
    <glyph glyph-name="guilsinglright.case" horiz-adv-x="290" 
d="M49 537h108l99 -196l-174 -191h-119l181 200z" />
    <glyph glyph-name="G.ss01" horiz-adv-x="745" 
d="M418 725c178 0 272 -109 294 -224l-116 -34c-16 78 -75 144 -189 144c-148 0 -252 -132 -252 -300c0 -129 77 -214 200 -214c112 0 187 67 209 151h-252l22 106h369c-9 -203 -133 -369 -355 -369c-182 0 -315 134 -315 319c0 271 193 420 385 421z" />
    <glyph glyph-name="r.ss03" horiz-adv-x="380" 
d="M215 461l-6 -29c12 35 47 61 87 61c45 0 74 -33 74 -72c0 -50 -41 -90 -91 -90c-45 0 -75 33 -75 72v7l-87 -410h-115l97 460c3 15 3 23 3 27h116c0 -7 -1 -17 -3 -26z" />
    <glyph glyph-name="ampersand.ss04" horiz-adv-x="681" 
d="M638 217h-85c-26 -129 -130 -232 -280 -232c-160 0 -251 93 -251 203c0 140 112 206 197 217c-46 23 -78 70 -78 126c0 115 106 193 215 193c127 0 202 -77 202 -171c0 -7 -1 -26 -2 -33l-117 -8c1 6 2 19 2 27c0 47 -28 82 -88 82c-46 0 -95 -34 -95 -93
c0 -53 44 -79 94 -79l-22 -103h-24c-58 0 -161 -29 -161 -142c0 -55 43 -112 136 -112c72 0 134 47 154 125h-93l21 102h296z" />
    <glyph glyph-name="one.ss05" horiz-adv-x="441" 
d="M-15 104h136l75 349h-140l17 78c82 5 150 51 178 117h104l-115 -544h158l-22 -104h-413z" />
    <glyph glyph-name="registered.ss06" horiz-adv-x="416" 
d="M50 526c0 105 85 190 190 190s191 -85 191 -190s-86 -190 -191 -190s-190 85 -190 190zM101 526c0 -79 61 -142 139 -142s140 63 140 142s-62 142 -140 142s-139 -63 -139 -142zM252 431l-16 66h-14l-14 -66h-53l41 196h74c39 0 61 -25 61 -55c0 -33 -21 -59 -48 -67
l23 -74h-54zM231 540h16c17 0 30 9 30 23c0 13 -7 20 -23 20h-13z" />
    <glyph glyph-name="caron.alt" horiz-adv-x="198" 
d="M147 709l-108 -189h-83l68 189h123z" />
    <glyph glyph-name="commaaccent" horiz-adv-x="191" 
d="M-36 535l9 45h9c28 0 60 8 74 39c-4 -2 -13 -4 -21 -4c-35 0 -54 23 -54 51c0 37 31 63 69 63s68 -24 68 -68c0 -77 -63 -127 -135 -127c-6 0 -13 0 -19 1z" />
    <glyph glyph-name="commaturn" horiz-adv-x="170" 
d="M102 606c0 -36 -30 -66 -69 -66c-41 0 -68 35 -68 69c0 89 76 128 137 128c4 0 9 0 17 -1l-9 -45c-6 1 -10 1 -11 1c-34 0 -66 -17 -72 -40c5 2 11 4 21 4c36 0 54 -24 54 -50z" />
    <glyph glyph-name="dieresis.narrow" horiz-adv-x="305" 
d="M-37 618c0 36 29 68 67 68c33 0 56 -24 56 -55c0 -39 -34 -66 -68 -66s-55 23 -55 53zM119 618c0 36 29 68 67 68c33 0 56 -24 56 -55c0 -39 -34 -66 -68 -66s-55 23 -55 53z" />
    <glyph glyph-name="dieresis.uc.narrow" horiz-adv-x="324" 
d="M-36 814c0 38 31 69 69 69c33 0 55 -25 55 -54c0 -41 -32 -69 -68 -69c-32 0 -56 23 -56 54zM136 814c0 38 30 69 69 69c32 0 55 -25 55 -54c0 -41 -32 -69 -69 -69c-32 0 -55 23 -55 54z" />
    <glyph glyph-name="grave.uc" horiz-adv-x="273" 
d="M92 759l-112 124h138l75 -124h-101z" />
    <glyph glyph-name="dieresis.uc" horiz-adv-x="418" 
d="M-31 814c0 40 32 74 74 74c35 0 59 -27 59 -59c0 -44 -35 -74 -73 -74c-35 0 -60 25 -60 59zM215 814c0 40 32 74 74 74c35 0 59 -27 59 -59c0 -44 -35 -74 -73 -74c-35 0 -60 25 -60 59z" />
    <glyph glyph-name="macron.uc" horiz-adv-x="330" 
d="M256 776h-299l20 93h299z" />
    <glyph glyph-name="acute.uc" horiz-adv-x="273" 
d="M228 883l-162 -124h-114l123 124h153z" />
    <glyph glyph-name="circumflex.uc" horiz-adv-x="398" 
d="M63 759h-108l141 124h129l92 -124h-100l-64 64z" />
    <glyph glyph-name="caron.uc" horiz-adv-x="398" 
d="M234 883h112l-145 -124h-129l-89 124h100l60 -65z" />
    <glyph glyph-name="breve.uc" horiz-adv-x="359" 
d="M122 754c-86 0 -141 47 -141 114c0 7 1 15 2 19h87c-1 -4 -1 -6 -1 -8c0 -23 16 -45 59 -45c49 0 74 27 80 53h93c-18 -65 -77 -133 -179 -133z" />
    <glyph glyph-name="dotaccent.uc" horiz-adv-x="177" 
d="M-34 821c0 42 36 79 80 79c39 0 67 -29 67 -64c0 -45 -38 -82 -81 -82c-39 0 -66 30 -66 67z" />
    <glyph glyph-name="ring.uc" horiz-adv-x="275" 
d="M90 907c-26 0 -52 -21 -52 -51c0 -26 18 -42 44 -42c27 0 52 20 52 51c0 25 -18 42 -44 42zM-36 848c0 75 64 131 133 131c64 0 113 -47 113 -108c0 -71 -63 -130 -132 -130c-64 0 -114 47 -114 107z" />
    <glyph glyph-name="tilde.uc" horiz-adv-x="362" 
d="M317 886c-16 -98 -61 -132 -119 -132c-29 0 -53 12 -72 24l-8 5c-14 9 -27 17 -42 17c-19 0 -33 -12 -38 -43h-78c10 96 63 131 121 131c29 0 53 -11 71 -23l8 -6c14 -9 26 -17 41 -17c19 0 32 13 38 44h78z" />
    <glyph glyph-name="hungarumlaut.uc" horiz-adv-x="366" 
d="M152 883l-120 -124h-81l79 124h122zM315 883l-131 -124h-83l92 124h122z" />
    <glyph glyph-name="caron.alt.uc" horiz-adv-x="198" 
d="M147 709l-112 -200h-88l69 200h131z" />
    <glyph glyph-name="undercommaaccent" horiz-adv-x="221" 
d="M16 -102c0 36 31 63 71 63c38 0 68 -26 68 -69c0 -87 -71 -126 -133 -126c-6 0 -16 1 -22 2l10 45c4 -1 13 -1 14 -1c28 0 56 8 68 39c-2 -1 -10 -4 -20 -4c-35 0 -56 23 -56 51z" />
    </font>
</defs>
</svg>
