<?xml version="1.0" standalone="no"?>
<!DOCTYPE svg PUBLIC "-//W3C//DTD SVG 1.1//EN" "http://www.w3.org/Graphics/SVG/1.1/DTD/svg11.dtd" >
<svg xmlns="http://www.w3.org/2000/svg" xmlns:xlink="http://www.w3.org/1999/xlink" version="1.1">
<metadata>
Created by FontForge 20161116 at Tue Jun 27 14:44:18 2017
 By Jimmy Warting
Generated in 2013 by FontLab Studio. Copyright info pending.
</metadata>
<defs>
<font id="BoldItalic" horiz-adv-x="578" >
  <font-face 
    font-family="CircularStd"
    font-weight="700"
    font-style="italic"
    font-stretch="normal"
    units-per-em="1000"
    panose-1="2 11 8 4 2 1 1 1 1 2"
    ascent="809"
    descent="-191"
    x-height="492"
    cap-height="709"
    bbox="-136 -250 1603 996"
    underline-thickness="80"
    underline-position="-195"
    slope="-12"
    stemh="117"
    stemv="99"
    unicode-range="U+000D-FEFF"
  />
<missing-glyph horiz-adv-x="580" 
d="M-1 0v709h582v-709h-582zM108 109h364v491h-364v-491z" />
    <glyph glyph-name="f_f" unicode="ff" horiz-adv-x="680" 
d="M159 0h-134l80 379h-83l24 113h84l15 74c27 126 108 165 194 165c35 0 68 -9 81 -17l-23 -109c0 -1 -14 9 -43 9c-36 0 -69 -17 -79 -62l-12 -60h184l15 74c27 126 108 165 195 165c34 0 67 -9 80 -17l-23 -109c0 -1 -14 9 -43 9c-36 0 -69 -17 -79 -62l-12 -60h105
l-25 -113h-104l-80 -379h-134l80 379h-183z" />
    <glyph glyph-name="f_f_i" unicode="ffi" horiz-adv-x="940" 
d="M782 648c0 49 41 89 90 89c44 0 74 -32 74 -72c0 -52 -44 -89 -91 -89c-42 0 -73 31 -73 72zM159 0h-134l80 379h-83l24 113h84l15 74c27 126 108 165 194 165c35 0 68 -9 81 -17l-23 -109c0 -1 -14 9 -43 9c-36 0 -69 -17 -79 -62l-12 -60h184l15 74
c27 126 108 165 195 165c34 0 67 -9 80 -17l-23 -109c0 -1 -14 9 -43 9c-36 0 -69 -17 -79 -62l-12 -60h317l-105 -492h-132l81 379h-185l-80 -379h-134l80 379h-183z" />
    <glyph glyph-name="f_f_l" unicode="ffl" horiz-adv-x="946" 
d="M159 0h-134l80 379h-83l24 113h84l15 74c27 126 108 165 194 165c35 0 68 -9 81 -17l-23 -109c0 -1 -14 9 -43 9c-36 0 -69 -17 -79 -62l-12 -60h184l15 74c27 126 108 165 195 165c34 0 67 -9 80 -17l-23 -109c0 -1 -14 9 -43 9c-36 0 -69 -17 -79 -62l-12 -60h191
l49 232h133l-154 -724h-132l80 379h-191l-80 -379h-134l80 379h-183z" />
    <glyph glyph-name="f_i" unicode="fi" horiz-adv-x="627" 
d="M239 379l-80 -379h-134l80 379h-83l24 113h84l17 80c26 120 106 159 192 159c35 0 68 -9 81 -17l-23 -109c0 -1 -16 9 -45 9c-40 0 -68 -22 -78 -68l-11 -54h321l-105 -492h-132l81 379h-189zM469 648c0 49 41 89 90 89c44 0 74 -32 74 -72c0 -52 -44 -89 -91 -89
c-42 0 -73 31 -73 72z" />
    <glyph glyph-name="f_l" unicode="fl" horiz-adv-x="626" 
d="M239 379l-80 -379h-134l80 379h-83l24 113h84l17 80c26 120 106 159 192 159c35 0 68 -9 81 -17l-23 -109c0 -1 -16 9 -45 9c-40 0 -68 -22 -78 -68l-11 -54h188l49 232h133l-154 -724h-132l80 379h-188z" />
    <glyph glyph-name=".notdef" horiz-adv-x="580" 
d="M-1 0v709h582v-709h-582zM108 109h364v491h-364v-491z" />
    <glyph glyph-name=".null" horiz-adv-x="0" 
 />
    <glyph glyph-name=".null" horiz-adv-x="0" 
 />
    <glyph glyph-name="uni000D" unicode="&#xd;" horiz-adv-x="261" 
 />
    <glyph glyph-name="space" unicode=" " horiz-adv-x="261" 
 />
    <glyph glyph-name="exclam" unicode="!" horiz-adv-x="317" 
d="M76 216l72 493h161l-136 -493h-97zM19 63c0 48 39 88 88 88c43 0 71 -33 71 -71c0 -49 -42 -88 -86 -88c-43 0 -73 31 -73 71z" />
    <glyph glyph-name="quotedbl" unicode="&#x22;" horiz-adv-x="423" 
d="M130 375h-47l-6 154c-1 25 -2 46 -2 49c0 47 33 82 81 82c42 0 70 -28 70 -66c0 -18 -8 -40 -15 -52zM318 375h-47l-6 154c-1 25 -2 46 -2 49c0 47 33 82 81 82c42 0 70 -28 70 -66c0 -18 -8 -40 -15 -52z" />
    <glyph glyph-name="numbersign" unicode="#" horiz-adv-x="728" 
d="M82 396v96h143l34 156h105l-34 -156h131l34 156h104l-34 -156h127v-96h-147l-30 -140h127v-95h-148l-34 -161h-104l34 161h-131l-34 -161h-105l34 161h-122v95h143l30 140h-123zM310 396l-30 -140h131l30 140h-131z" />
    <glyph glyph-name="dollar" unicode="$" horiz-adv-x="575" 
d="M144 -116l24 113c-112 32 -156 127 -156 201c0 9 1 16 2 21l124 21c-1 -8 -1 -12 -1 -19c0 -60 35 -121 121 -122c59 0 96 31 97 77c0 30 -17 53 -54 72c-14 6 -64 30 -78 35c-84 38 -127 96 -127 175c0 116 95 196 213 204l21 104h109l-24 -115
c106 -32 139 -121 139 -177l-126 -22c0 25 -11 97 -107 97c-54 0 -90 -37 -90 -79c0 -34 19 -57 50 -71l74 -34c96 -44 137 -104 137 -180c0 -99 -81 -194 -218 -200l-21 -101h-109z" />
    <glyph glyph-name="percent" unicode="%" horiz-adv-x="791" 
d="M197 428c36 0 73 29 73 80c0 35 -22 59 -58 59c-35 0 -72 -31 -72 -80c0 -34 21 -59 57 -59zM189 334c-86 0 -148 65 -148 147c0 104 86 180 180 180c85 0 148 -66 148 -148c0 -105 -90 -179 -180 -179zM580 84c36 0 73 29 73 80c0 35 -22 59 -58 59
c-35 0 -72 -31 -72 -80c0 -34 21 -59 57 -59zM572 -10c-86 0 -148 65 -148 147c0 104 86 180 180 180c85 0 148 -66 148 -148c0 -105 -90 -179 -180 -179zM752 649l-593 -649h-121l593 649h121z" />
    <glyph glyph-name="ampersand" unicode="&#x26;" horiz-adv-x="679" 
d="M605 0h-151l-51 74l-13 -11c-53 -45 -111 -71 -182 -71c-127 0 -200 88 -200 180c0 106 69 163 162 214l11 6l-8 12c-23 33 -49 79 -49 130c0 127 106 190 208 190c111 0 183 -73 183 -162c0 -94 -72 -147 -140 -184l-25 -14l84 -120l215 182l-37 -174l-115 -98zM141 184
c0 -41 33 -76 82 -76c37 0 73 20 108 49l9 7l-98 140l-26 -14c-50 -27 -75 -55 -75 -106zM290 451l31 17c49 26 68 56 68 87c0 35 -28 59 -67 59c-31 0 -73 -21 -73 -75c0 -24 12 -47 24 -64z" />
    <glyph glyph-name="quotesingle" unicode="'" horiz-adv-x="231" 
d="M130 375h-47l-6 154c-1 25 -2 46 -2 49c0 47 33 82 81 82c42 0 70 -28 70 -66c0 -18 -8 -40 -15 -52z" />
    <glyph glyph-name="parenleft" unicode="(" horiz-adv-x="322" 
d="M28 206c0 266 112 468 326 611l60 -80c-155 -112 -273 -278 -273 -523c0 -119 37 -230 98 -321l-90 -59c-64 92 -120 224 -121 372z" />
    <glyph glyph-name="parenright" unicode=")" horiz-adv-x="324" 
d="M291 439c0 -256 -119 -459 -327 -607l-61 79c153 117 276 281 276 527c0 116 -36 227 -98 316l90 59c68 -98 120 -225 120 -374z" />
    <glyph glyph-name="asterisk" unicode="*" horiz-adv-x="453" 
d="M345 709l-25 -127l123 38l15 -100l-125 -37l58 -98l-90 -60l-60 104l-96 -105l-74 62l98 103l-111 38l46 94l109 -39l22 127h110z" />
    <glyph glyph-name="plus" unicode="+" horiz-adv-x="583" 
d="M341 240v-196h-112v196h-189v109h189v195h112v-195h189v-109h-189z" />
    <glyph glyph-name="comma" unicode="," horiz-adv-x="289" 
d="M-2 69c0 55 44 94 99 94s92 -41 92 -97c0 -128 -101 -228 -228 -236l14 68c48 5 109 46 122 102c-4 -2 -15 -4 -23 -4c-46 0 -76 32 -76 73z" />
    <glyph glyph-name="hyphen" unicode="-" horiz-adv-x="365" 
d="M301 238h-290l25 118h291z" />
    <glyph glyph-name="period" unicode="." horiz-adv-x="281" 
d="M79 -6c-50 0 -83 37 -83 81c0 54 45 100 102 100c50 0 83 -37 83 -81c0 -55 -46 -100 -102 -100z" />
    <glyph glyph-name="slash" unicode="/" horiz-adv-x="470" 
d="M559 724l-517 -739h-126l515 739h128z" />
    <glyph glyph-name="zero" unicode="0" horiz-adv-x="610" 
d="M164 238c0 -77 31 -131 107 -131c125 0 169 197 169 305c0 74 -27 129 -107 129c-126 0 -169 -193 -169 -303zM264 -15c-171 0 -237 125 -237 251c0 162 79 428 314 428c172 0 236 -125 236 -251c0 -166 -83 -428 -313 -428z" />
    <glyph glyph-name="one" unicode="1" horiz-adv-x="369" 
d="M208 0h-138l94 441h-138l20 91c84 3 153 50 180 117h119z" />
    <glyph glyph-name="two" unicode="2" horiz-adv-x="547" 
d="M-33 0c0 4 4 24 4 28c21 116 78 206 208 264l119 53c65 29 101 63 101 115c0 41 -25 83 -92 83c-76 0 -113 -56 -113 -142l-128 14c0 139 92 249 249 249c151 0 221 -88 221 -189c0 -109 -67 -179 -173 -227l-138 -62c-29 -13 -57 -38 -73 -67h316l-25 -119h-476z" />
    <glyph glyph-name="three" unicode="3" horiz-adv-x="543" 
d="M205 299l-46 103l202 129h-286l23 118h460l-27 -135l-193 -124c82 -9 146 -74 146 -169c0 -122 -102 -236 -258 -236c-154 0 -237 104 -237 211c0 3 0 10 2 18l134 15c-1 -7 -1 -16 -1 -19c0 -59 38 -106 103 -106c69 0 118 45 118 112c0 63 -48 90 -99 90
c-10 0 -25 -1 -41 -7z" />
    <glyph glyph-name="four" unicode="4" horiz-adv-x="595" 
d="M-14 139l30 145l355 365h166l-84 -392h111l-25 -118h-111l-28 -139h-136l28 139h-306zM317 257l53 244l-237 -244h184z" />
    <glyph glyph-name="five" unicode="5" horiz-adv-x="540" 
d="M-5 194v4l130 25c-1 -2 -1 -8 -1 -13c0 -55 36 -108 106 -108c61 0 119 41 119 120c0 61 -45 96 -103 96c-39 0 -69 -14 -91 -34l-115 57l135 308h365l-25 -119h-265l-58 -129c26 16 65 24 95 24c127 0 201 -73 201 -188c0 -138 -101 -253 -260 -253
c-141 0 -233 99 -233 210z" />
    <glyph glyph-name="six" unicode="6" horiz-adv-x="572" 
d="M585 620l-55 -106c-34 18 -78 27 -123 27c-102 0 -196 -59 -230 -168c32 36 85 58 141 58c126 0 200 -77 200 -188c0 -152 -117 -257 -262 -257c-134 0 -237 96 -237 249c0 230 158 423 398 423c74 0 136 -16 168 -38zM276 320c-66 0 -120 -48 -120 -118
c0 -58 42 -99 103 -99c62 0 119 45 119 120c0 58 -39 97 -102 97z" />
    <glyph glyph-name="seven" unicode="7" horiz-adv-x="524" 
d="M558 649l-24 -115c-58 -39 -276 -208 -373 -534h-145c85 317 308 500 351 532h-325l25 117h491z" />
    <glyph glyph-name="eight" unicode="8" horiz-adv-x="558" 
d="M294 381c61 0 102 42 102 93c0 38 -27 76 -85 76c-69 0 -105 -45 -105 -93c0 -37 27 -76 88 -76zM134 182c0 -51 43 -85 103 -85c68 0 114 47 114 100c0 44 -31 85 -103 85c-70 0 -114 -47 -114 -100zM484 186c0 -127 -121 -201 -255 -201c-129 0 -230 64 -230 180
c0 85 65 152 160 172c-45 20 -85 72 -85 131c0 117 106 196 242 196c142 0 219 -78 219 -173c0 -77 -53 -142 -139 -167c55 -21 88 -81 88 -138z" />
    <glyph glyph-name="nine" unicode="9" horiz-adv-x="564" 
d="M179 428c0 -58 40 -96 102 -96c66 0 117 47 117 116c0 59 -42 98 -101 98c-61 0 -118 -43 -118 -118zM-23 37l54 106c41 -25 86 -36 130 -36c109 0 197 68 222 175c-31 -38 -80 -60 -137 -60c-120 0 -204 81 -204 196c0 152 119 246 260 246c137 0 237 -93 237 -249
c0 -261 -158 -430 -379 -430c-65 0 -133 16 -183 52z" />
    <glyph glyph-name="colon" unicode=":" horiz-adv-x="297" 
d="M83 -6c-50 0 -82 36 -82 80c0 53 44 98 100 98c49 0 82 -36 82 -80c0 -54 -45 -98 -100 -98zM153 321c-50 0 -82 36 -82 80c0 53 44 98 100 98c49 0 82 -36 82 -80c0 -54 -45 -98 -100 -98z" />
    <glyph glyph-name="semicolon" unicode=";" horiz-adv-x="297" 
d="M-3 66c0 52 42 90 95 90c52 0 87 -40 87 -93c0 -122 -96 -218 -217 -225l13 65c46 4 104 44 117 97c-4 -2 -15 -4 -22 -4c-44 0 -73 31 -73 70zM153 321c-50 0 -82 36 -82 80c0 53 44 98 100 98c49 0 82 -36 82 -80c0 -54 -45 -98 -100 -98z" />
    <glyph glyph-name="less" unicode="&#x3c;" horiz-adv-x="498" 
d="M22 244v101l430 217v-123l-296 -143l296 -143v-125z" />
    <glyph glyph-name="equal" unicode="=" horiz-adv-x="619" 
d="M59 341v107h485v-107h-485zM59 142v108h485v-108h-485z" />
    <glyph glyph-name="greater" unicode="&#x3e;" horiz-adv-x="498" 
d="M464 345v-100l-430 -217v123l296 143l-296 143v125z" />
    <glyph glyph-name="question" unicode="?" horiz-adv-x="507" 
d="M259 214h-106c1 65 21 140 108 189l56 32c41 23 60 56 60 93c0 39 -26 77 -88 77c-77 0 -114 -62 -114 -129l-124 14c2 132 100 234 248 234c145 0 216 -88 216 -177c0 -100 -58 -163 -138 -208l-46 -27c-45 -26 -67 -54 -72 -98zM112 63c0 48 39 88 88 88
c43 0 71 -33 71 -71c0 -49 -42 -88 -86 -88c-43 0 -73 31 -73 71z" />
    <glyph glyph-name="at" unicode="@" horiz-adv-x="805" 
d="M428 -48c-234 0 -402 152 -402 379c0 233 178 394 393 394c206 0 360 -141 360 -329c0 -152 -100 -257 -205 -257c-52 0 -85 28 -95 60c-25 -40 -72 -62 -116 -62c-87 0 -152 71 -152 173c0 131 91 225 197 225c38 0 81 -17 97 -55l8 42h95l-52 -245c-1 -4 -3 -13 -3 -19
c0 -17 11 -32 32 -32c49 0 99 72 99 169c0 141 -108 239 -264 239c-167 0 -293 -121 -293 -301c0 -166 112 -292 301 -292c63 0 128 17 184 59l48 -68c-54 -49 -153 -80 -232 -80zM483 366c0 48 -24 79 -68 79c-60 0 -101 -59 -101 -126c0 -53 20 -92 71 -92
c55 0 96 59 98 139z" />
    <glyph glyph-name="A" unicode="A" horiz-adv-x="680" 
d="M470 0l-23 162h-274l-91 -162h-155l415 709h158l113 -709h-143zM392 554l-148 -266h185z" />
    <glyph glyph-name="B" unicode="B" horiz-adv-x="611" 
d="M156 709h235c126 0 189 -71 189 -167c0 -83 -58 -161 -137 -183c47 -15 96 -67 96 -141c0 -127 -102 -218 -246 -218h-287zM229 416h93c71 0 119 42 119 104c0 45 -30 73 -91 73h-83zM166 115h108c74 0 128 43 128 109c0 46 -29 78 -94 78h-103z" />
    <glyph glyph-name="C" unicode="C" horiz-adv-x="718" 
d="M418 724c191 0 278 -121 297 -229l-134 -40c-13 64 -62 138 -173 138c-127 0 -235 -112 -235 -279c0 -116 70 -197 184 -197c101 0 158 66 187 133l124 -50c-43 -104 -144 -216 -323 -216c-186 0 -313 136 -313 322c0 266 191 417 386 418z" />
    <glyph glyph-name="D" unicode="D" horiz-adv-x="705" 
d="M169 130h129c115 0 234 102 234 271c0 110 -59 180 -179 180h-88zM293 0h-287l149 709h210c193 0 308 -119 308 -295c0 -268 -186 -414 -380 -414z" />
    <glyph glyph-name="E" unicode="E" horiz-adv-x="580" 
d="M448 0h-442l150 709h442l-28 -130h-303l-35 -162h275l-26 -123h-275l-35 -164h304z" />
    <glyph glyph-name="F" unicode="F" horiz-adv-x="563" 
d="M144 0h-138l150 709h446l-28 -131h-308l-37 -175h274l-26 -127h-274z" />
    <glyph glyph-name="G" unicode="G" horiz-adv-x="756" 
d="M407 594c-125 0 -234 -108 -234 -280c0 -120 66 -202 183 -202c101 0 172 57 196 137h-220l25 120h348l-77 -369h-106l3 73c-41 -52 -107 -86 -191 -86c-178 0 -302 128 -302 319c0 266 188 418 386 418c191 0 281 -115 300 -223l-135 -40c-13 64 -63 133 -176 133z" />
    <glyph glyph-name="H" unicode="H" horiz-adv-x="724" 
d="M568 0h-139l62 294h-285l-62 -294h-138l150 709h138l-60 -285h285l60 285h139z" />
    <glyph glyph-name="I" unicode="I" horiz-adv-x="302" 
d="M146 0h-140l150 709h140z" />
    <glyph glyph-name="J" unicode="J" horiz-adv-x="554" 
d="M418 709h140l-109 -512c-27 -127 -117 -212 -242 -212c-132 0 -208 83 -208 196c0 19 1 42 6 64l6 26l135 19l-11 -55c-2 -11 -4 -22 -4 -33c0 -48 26 -87 83 -87c52 0 86 39 98 97z" />
    <glyph glyph-name="K" unicode="K" horiz-adv-x="689" 
d="M441 0l-152 294l-103 -93l-42 -201h-138l150 709h138l-63 -299l332 299h190l-355 -318l205 -391h-162z" />
    <glyph glyph-name="L" unicode="L" horiz-adv-x="552" 
d="M452 0h-446l150 709h138l-122 -577h308z" />
    <glyph glyph-name="M" unicode="M" horiz-adv-x="945" 
d="M789 0h-136l104 494l-301 -494h-109l-105 488l-104 -488h-132l150 709h169l112 -509l305 509h197z" />
    <glyph glyph-name="N" unicode="N" horiz-adv-x="748" 
d="M592 0h-138l-205 501l-106 -501h-137l150 709h159l188 -473l101 473h138z" />
    <glyph glyph-name="O" unicode="O" horiz-adv-x="758" 
d="M32 302c0 269 188 422 381 422c189 0 313 -128 313 -317c0 -269 -188 -422 -380 -422c-188 0 -314 129 -314 317zM584 399c0 119 -68 194 -179 194c-132 0 -232 -126 -232 -281c0 -120 71 -194 179 -194c127 0 230 115 232 281z" />
    <glyph glyph-name="P" unicode="P" horiz-adv-x="591" 
d="M156 709h231c127 0 213 -81 213 -196c0 -152 -114 -243 -274 -244h-125l-57 -269h-138zM355 589h-85l-44 -201h99c76 0 133 39 133 115c0 51 -32 86 -103 86z" />
    <glyph glyph-name="Q" unicode="Q" horiz-adv-x="759" 
d="M32 302c0 269 188 422 381 422c189 0 313 -128 313 -317c0 -141 -52 -249 -128 -321l71 -101l-104 -67l-70 99c-47 -21 -98 -32 -149 -32c-188 0 -314 129 -314 317zM317 270l105 68l96 -138c39 50 66 118 66 199c0 119 -68 194 -179 194c-132 0 -232 -126 -232 -281
c0 -120 71 -194 179 -194c22 0 44 3 65 10z" />
    <glyph glyph-name="R" unicode="R" horiz-adv-x="628" 
d="M391 0l-99 274h-90l-58 -274h-138l150 709h247c132 0 203 -78 203 -182c0 -120 -75 -204 -178 -235l110 -292h-147zM227 394h106c80 0 132 46 132 115c0 48 -30 80 -93 80h-103z" />
    <glyph glyph-name="S" unicode="S" horiz-adv-x="584" 
d="M264 105c68 0 109 36 110 87c0 33 -16 60 -60 79l-86 38c-90 40 -137 102 -137 190c0 133 114 224 251 224c188 0 241 -130 241 -205l-129 -22c0 27 -12 107 -118 107c-63 0 -106 -43 -106 -90c0 -38 24 -64 56 -78l82 -36c105 -46 148 -111 148 -196
c0 -111 -93 -218 -250 -218c-196 0 -267 133 -267 232c0 4 0 14 2 21l129 22c-1 -9 -1 -13 -1 -21c0 -66 39 -132 135 -134z" />
    <glyph glyph-name="T" unicode="T" horiz-adv-x="593" 
d="M624 578h-206l-122 -578h-138l122 578h-215l28 131h559z" />
    <glyph glyph-name="U" unicode="U" horiz-adv-x="676" 
d="M540 709h140l-103 -485c-33 -157 -144 -239 -282 -239c-150 0 -249 88 -249 227c0 22 3 45 8 69l90 428h138l-91 -434c-3 -16 -5 -31 -5 -45c0 -66 36 -111 120 -111c72 0 119 44 137 128z" />
    <glyph glyph-name="V" unicode="V" horiz-adv-x="661" 
d="M217 709l70 -529l288 529h155l-407 -709h-141l-107 709h142z" />
    <glyph glyph-name="W" unicode="W" horiz-adv-x="996" 
d="M496 709h143l54 -492l222 492h147l-336 -709h-139l-55 505l-256 -505h-145l-47 709h138l27 -490z" />
    <glyph glyph-name="X" unicode="X" horiz-adv-x="659" 
d="M305 233l-196 -233h-173l311 358l-161 351h157l104 -235l198 235h172l-312 -360l162 -349h-159z" />
    <glyph glyph-name="Y" unicode="Y" horiz-adv-x="626" 
d="M237 299l-157 410h146l101 -278l197 278h166l-315 -412l-63 -297h-138z" />
    <glyph glyph-name="Z" unicode="Z" horiz-adv-x="633" 
d="M514 0h-544l28 133l448 445h-344l28 131h530l-27 -128l-455 -450h364z" />
    <glyph glyph-name="bracketleft" unicode="[" horiz-adv-x="320" 
d="M204 -164h-230l206 974h231l-21 -101h-122l-163 -770h121z" />
    <glyph glyph-name="backslash" unicode="\" horiz-adv-x="446" 
d="M270 -15l-214 739h114l214 -739h-114z" />
    <glyph glyph-name="bracketright" unicode="]" horiz-adv-x="325" 
d="M125 -164h-230l22 103h121l163 770h-121l21 101h231z" />
    <glyph glyph-name="asciicircum" unicode="^" horiz-adv-x="565" 
d="M244 709h102l198 -358h-125l-123 231l-123 -231h-127z" />
    <glyph glyph-name="underscore" unicode="_" horiz-adv-x="513" 
d="M-69 -109v109h511v-109h-511z" />
    <glyph glyph-name="grave" unicode="`" horiz-adv-x="278" 
d="M106 551l-103 150h148l58 -150h-103z" />
    <glyph glyph-name="a" unicode="a" horiz-adv-x="580" 
d="M269 385c-85 0 -130 -90 -130 -170c0 -68 37 -109 96 -109c68 0 128 65 128 174c0 65 -35 105 -94 105zM413 492h129l-81 -384c-6 -29 -9 -61 -9 -89c0 -4 0 -10 1 -19h-123c-1 8 -1 16 -1 23c0 10 1 25 2 37c-23 -34 -66 -69 -132 -69c-121 0 -192 98 -192 219
c0 167 109 294 251 294c91 0 130 -42 143 -68z" />
    <glyph glyph-name="b" unicode="b" horiz-adv-x="596" 
d="M122 0h-129l152 724h131l-57 -272c27 30 76 51 132 51c127 0 192 -92 192 -206c0 -180 -110 -309 -258 -309c-77 0 -131 41 -148 81zM305 386c-75 0 -133 -73 -133 -167c0 -70 42 -113 100 -113c63 0 137 58 137 170c0 73 -43 110 -104 110z" />
    <glyph glyph-name="c" unicode="c" horiz-adv-x="522" 
d="M495 342l-120 -36c-8 41 -40 80 -102 80c-65 0 -136 -56 -136 -167c0 -71 44 -113 109 -113c58 0 92 35 111 72l110 -43c-35 -77 -111 -150 -229 -150c-134 0 -233 92 -233 231c0 176 131 291 277 291c134 0 198 -85 213 -165z" />
    <glyph glyph-name="d" unicode="d" horiz-adv-x="583" 
d="M591 724l-130 -616c-7 -31 -10 -64 -11 -87c0 -9 0 -17 1 -21h-121c-1 9 -1 17 -1 25c0 10 1 24 2 35c-23 -34 -66 -69 -132 -69c-121 1 -192 97 -192 219c0 167 109 294 251 294c83 0 124 -36 140 -64l60 284h133zM269 385c-85 0 -130 -90 -130 -170
c0 -68 37 -109 96 -109c68 0 128 65 128 174c0 65 -35 105 -94 105z" />
    <glyph glyph-name="e" unicode="e" horiz-adv-x="539" 
d="M145 302h216c1 7 1 10 1 12c0 37 -24 85 -93 85c-67 0 -108 -44 -124 -97zM473 211l-342 -1c0 -64 38 -114 110 -114c54 0 92 30 110 64l102 -51c-32 -64 -105 -124 -220 -124c-123 0 -226 88 -226 227c0 182 132 295 264 295c137 0 216 -87 216 -207
c0 -29 -6 -63 -14 -89z" />
    <glyph glyph-name="f" unicode="f" horiz-adv-x="363" 
d="M343 379h-104l-80 -379h-134l80 379h-83l24 113h84l17 80c26 120 106 159 192 159c35 0 68 -9 81 -17l-23 -109c0 -1 -16 9 -45 9c-40 0 -68 -22 -78 -68l-11 -54h104z" />
    <glyph glyph-name="g" unicode="g" horiz-adv-x="579" 
d="M365 288c0 54 -35 97 -96 97c-72 0 -127 -57 -127 -145c0 -60 37 -101 99 -101c68 0 124 56 124 149zM-51 -18l119 24c0 -51 33 -96 106 -96c76 0 121 48 142 134l8 33c-19 -25 -60 -49 -116 -49c-123 0 -199 88 -199 204c0 150 105 270 248 270c78 0 126 -32 145 -66
l12 56h130l-94 -449c-28 -133 -112 -248 -277 -248c-153 0 -224 98 -224 187z" />
    <glyph glyph-name="h" unicode="h" horiz-adv-x="580" 
d="M441 0h-133l61 285c2 10 3 20 3 29c0 44 -26 73 -75 73c-57 0 -92 -47 -104 -102l-62 -285h-132l153 724h133l-57 -272c32 37 81 53 129 53c99 0 154 -66 154 -155c0 -17 -2 -34 -6 -52z" />
    <glyph glyph-name="i" unicode="i" horiz-adv-x="277" 
d="M119 648c0 49 41 89 90 89c44 0 74 -32 74 -72c0 -52 -44 -89 -91 -89c-42 0 -73 31 -73 72zM129 0h-132l105 492h132z" />
    <glyph glyph-name="j" unicode="j" horiz-adv-x="275" 
d="M-9 -32l113 524h132l-118 -554c-20 -95 -83 -143 -165 -143c-48 0 -80 16 -89 22l22 104c1 0 20 -9 46 -9c32 1 52 17 59 56zM121 648c0 49 41 89 90 89c44 0 74 -32 74 -72c0 -52 -44 -89 -91 -89c-42 0 -73 31 -73 72z" />
    <glyph glyph-name="k" unicode="k" horiz-adv-x="561" 
d="M326 0l-92 197l-75 -64l-28 -133h-132l153 724h133l-86 -404l196 172h185l-245 -209l140 -283h-149z" />
    <glyph glyph-name="l" unicode="l" horiz-adv-x="275" 
d="M128 0h-132l153 724h133z" />
    <glyph glyph-name="m" unicode="m" horiz-adv-x="874" 
d="M433 0h-132l61 289c2 9 3 18 3 27c0 41 -24 72 -73 72c-54 0 -86 -41 -98 -99l-63 -289h-132l86 408c10 46 10 77 10 84h129c0 -7 0 -28 -3 -48c32 41 82 61 134 61c64 0 108 -30 130 -74c49 62 114 74 161 74c93 0 158 -61 158 -157c0 -15 -2 -31 -5 -47l-65 -301h-132
l62 289c2 9 3 18 3 26c0 42 -24 73 -74 73c-53 0 -86 -42 -98 -98z" />
    <glyph glyph-name="n" unicode="n" horiz-adv-x="580" 
d="M441 0h-133l61 285c2 10 3 20 3 29c0 44 -26 73 -75 73c-57 0 -92 -47 -104 -102l-62 -285h-132l86 408c10 46 10 77 10 84h129c0 -8 0 -30 -3 -50c32 45 87 63 138 63c98 0 152 -66 152 -155c0 -17 -2 -34 -6 -52z" />
    <glyph glyph-name="o" unicode="o" horiz-adv-x="559" 
d="M273 386c-76 0 -133 -72 -133 -166c0 -71 42 -114 101 -114c62 0 133 55 133 167c0 72 -40 113 -101 113zM507 278c0 -159 -114 -293 -275 -293c-137 0 -225 101 -225 229c0 174 124 293 276 293c140 0 224 -101 224 -229z" />
    <glyph glyph-name="p" unicode="p" horiz-adv-x="594" 
d="M305 386c-76 0 -134 -73 -134 -167c0 -74 43 -113 101 -113c63 0 135 58 135 170c0 72 -42 110 -102 110zM213 441c28 36 80 61 138 61c126 0 190 -89 190 -205c0 -180 -109 -309 -256 -309c-74 0 -128 33 -151 71l-52 -249h-132l127 598c10 46 10 77 10 84h129
c0 -6 0 -32 -3 -51z" />
    <glyph glyph-name="q" unicode="q" horiz-adv-x="582" 
d="M541 492l-145 -683h-132l48 227c-26 -26 -64 -45 -113 -45c-121 1 -194 99 -194 219c0 167 109 294 251 294c90 0 130 -42 144 -67l12 55h129zM267 384c-84 0 -130 -88 -130 -169c0 -67 38 -109 99 -109c67 0 127 64 127 172c0 67 -35 106 -96 106z" />
    <glyph glyph-name="r" unicode="r" horiz-adv-x="399" 
d="M370 357c-16 4 -32 7 -48 7c-59 0 -119 -30 -142 -137l-49 -227h-132l86 408c10 46 11 77 11 84h129c0 -9 -1 -41 -6 -61c26 37 67 64 137 64c17 0 31 -2 42 -4z" />
    <glyph glyph-name="s" unicode="s" horiz-adv-x="444" 
d="M-15 151l113 20c-1 -4 -1 -7 -1 -9c0 -42 30 -77 78 -77c42 0 61 24 61 49c0 18 -8 35 -37 48l-55 24c-75 32 -105 78 -105 138c0 87 75 163 188 163c146 0 181 -95 183 -151l-115 -18c0 31 -16 70 -72 70c-35 0 -59 -22 -59 -49c0 -21 12 -34 31 -42l63 -27
c76 -33 109 -84 109 -144c0 -75 -62 -161 -190 -161c-164 0 -192 112 -192 166z" />
    <glyph glyph-name="t" unicode="t" horiz-adv-x="374" 
d="M193 -6c-86 0 -138 49 -138 127c0 12 1 25 4 39l46 214h-87l25 118h20c57 0 85 30 96 80l15 67h120l-32 -147h96l-25 -118h-96l-43 -205c-2 -7 -3 -14 -3 -20c0 -30 20 -42 53 -42c13 0 27 2 35 4l-23 -106c-7 -3 -28 -11 -63 -11z" />
    <glyph glyph-name="u" unicode="u" horiz-adv-x="567" 
d="M90 492h132l-57 -266c-5 -22 -7 -37 -7 -47c0 -44 23 -74 74 -74c55 0 88 45 100 101l62 286h132l-82 -392c-8 -36 -11 -64 -11 -89v-11h-127c-1 6 -1 17 -1 21c0 8 0 15 1 30c-26 -41 -78 -63 -123 -63c-105 0 -161 69 -161 161c0 18 2 37 10 73z" />
    <glyph glyph-name="v" unicode="v" horiz-adv-x="514" 
d="M535 492l-285 -492h-132l-87 492h137l43 -329l176 329h148z" />
    <glyph glyph-name="w" unicode="w" horiz-adv-x="804" 
d="M353 492h140l38 -315l151 315h138l-253 -492h-131l-42 335l-174 -335h-136l-48 492h129l25 -314z" />
    <glyph glyph-name="x" unicode="x" horiz-adv-x="516" 
d="M217 148l-131 -148h-160l233 252l-128 240h145l71 -144l126 144h162l-230 -248c18 -32 114 -212 132 -244h-146z" />
    <glyph glyph-name="y" unicode="y" horiz-adv-x="524" 
d="M109 -190h-147l170 268l-108 414h140l66 -276l166 276h149z" />
    <glyph glyph-name="z" unicode="z" horiz-adv-x="491" 
d="M375 0h-408l25 118l283 259h-220l24 115h395l-24 -112l-292 -265h241z" />
    <glyph glyph-name="braceleft" unicode="{" horiz-adv-x="369" 
d="M21 270l23 112c56 0 108 25 122 92l30 144c30 144 103 192 224 192h41l-21 -101h-30c-54 0 -90 -22 -104 -89l-36 -168c-14 -65 -56 -115 -126 -127c47 -14 74 -51 74 -102c0 -10 -1 -20 -3 -31l-33 -153c-2 -11 -3 -22 -3 -31c0 -47 28 -65 73 -65h25l-21 -101h-29
c-101 0 -160 52 -160 146c0 17 2 36 7 57l29 134c2 9 3 18 3 26c0 48 -39 65 -85 65z" />
    <glyph glyph-name="bar" unicode="|" horiz-adv-x="281" 
d="M85 -158h-111l205 968h112z" />
    <glyph glyph-name="braceright" unicode="}" horiz-adv-x="371" 
d="M338 381l-24 -112c-54 0 -106 -21 -121 -91l-31 -143c-30 -136 -109 -193 -230 -193h-35l22 101h28c54 0 92 29 106 93l36 168c13 63 56 110 126 124c-49 13 -75 51 -75 98c0 9 1 20 3 30l34 162c2 12 3 22 3 31c0 44 -26 60 -71 60h-27l21 101h32c96 0 157 -48 157 -142
c0 -17 -2 -36 -6 -56l-31 -138c-2 -9 -3 -18 -3 -26c0 -49 37 -67 86 -67z" />
    <glyph glyph-name="asciitilde" unicode="~" horiz-adv-x="653" 
d="M504 367l73 -59c-37 -67 -97 -104 -164 -104c-34 0 -71 9 -107 29l-47 26c-17 9 -34 13 -51 13c-34 0 -65 -19 -88 -52l-74 59c37 66 96 105 164 105c33 0 71 -9 106 -28l47 -26c16 -9 34 -14 50 -14c36 0 67 16 91 51z" />
    <glyph glyph-name="uni00A0" unicode="&#xa0;" horiz-adv-x="261" 
 />
    <glyph glyph-name="exclamdown" unicode="&#xa1;" horiz-adv-x="255" 
d="M167 283l-72 -493h-161l136 493h97zM224 436c0 -48 -39 -88 -87 -88c-44 0 -72 32 -72 71c0 49 42 88 86 88c43 0 73 -31 73 -71z" />
    <glyph glyph-name="cent" unicode="&#xa2;" horiz-adv-x="553" 
d="M152 0l19 91c-86 29 -138 107 -138 202c0 153 109 257 238 270l18 86h102l-20 -94c81 -23 122 -86 133 -145l-116 -33c-7 38 -38 74 -97 74c-64 0 -132 -51 -132 -155c0 -66 43 -105 105 -105c56 0 89 31 108 67l105 -40c-32 -70 -101 -136 -207 -141l-16 -77h-102z" />
    <glyph glyph-name="sterling" unicode="&#xa3;" horiz-adv-x="596" 
d="M52 273l22 102h67c-4 20 -7 41 -7 65c0 119 80 222 223 222c138 0 193 -81 193 -169c0 -13 -2 -25 -3 -28l-120 -13c1 4 2 13 2 23c0 42 -24 76 -76 76c-51 0 -94 -33 -94 -111c0 -21 4 -43 8 -65h177l-22 -102h-144c-5 -68 -43 -130 -107 -157h161c58 0 89 39 96 86
l115 -21c-18 -108 -97 -181 -205 -181h-347l25 120c84 16 130 84 136 153h-100z" />
    <glyph glyph-name="currency" unicode="&#xa4;" horiz-adv-x="616" 
d="M75 245c0 40 10 76 29 108l-72 73l80 80l74 -75c31 17 67 27 105 27c37 0 72 -9 103 -26l73 74l81 -80l-71 -71c20 -32 31 -70 31 -110c0 -41 -11 -78 -31 -109l71 -71l-80 -80l-73 73c-31 -17 -67 -26 -104 -26c-38 0 -74 9 -106 27l-73 -74l-80 80l72 73
c-19 31 -29 67 -29 107zM186 245c0 -61 45 -105 105 -105c61 0 105 44 105 105s-44 105 -105 105c-60 0 -105 -44 -105 -105z" />
    <glyph glyph-name="yen" unicode="&#xa5;" horiz-adv-x="619" 
d="M62 298l20 94h108l-97 257h144l83 -245l182 245h150l-205 -257h115l-20 -94h-178l-15 -69h179l-21 -94h-178l-28 -135h-130l28 135h-172l21 94h171l15 69h-172z" />
    <glyph glyph-name="brokenbar" unicode="&#xa6;" horiz-adv-x="281" 
d="M206 412h-111l84 398h112zM85 -158h-111l84 398h112z" />
    <glyph glyph-name="section" unicode="&#xa7;" horiz-adv-x="572" 
d="M-5 -1l129 9c-3 -11 -4 -21 -4 -30c0 -48 32 -75 81 -75c43 0 81 30 81 76c0 22 -11 43 -30 56l-91 63c-58 40 -107 87 -107 158c0 81 56 125 108 145c-35 34 -50 78 -50 121c0 125 117 202 226 202c130 0 200 -77 200 -172c0 -11 -1 -23 -3 -35l-129 -9c2 6 3 18 3 30
c0 48 -32 74 -80 74c-44 0 -82 -31 -82 -76c0 -21 11 -42 31 -56l90 -63c58 -41 107 -85 107 -156c0 -82 -55 -127 -107 -147c34 -34 50 -77 50 -117c0 -129 -115 -206 -227 -206c-129 0 -199 77 -199 172c0 11 1 23 3 36zM318 287l-90 64c-28 -15 -46 -39 -46 -70
c0 -21 8 -38 30 -53l89 -64c28 15 47 38 47 70c0 20 -9 38 -30 53z" />
    <glyph glyph-name="dieresis" unicode="&#xa8;" horiz-adv-x="387" 
d="M-13 621c0 40 35 78 78 78c38 0 64 -30 64 -65c0 -44 -40 -76 -79 -76c-37 0 -63 29 -63 63zM197 621c0 40 35 78 78 78c38 0 64 -30 64 -65c0 -44 -40 -76 -79 -76c-37 0 -63 29 -63 63z" />
    <glyph glyph-name="copyright" unicode="&#xa9;" horiz-adv-x="812" 
d="M31 354c0 204 164 371 368 371s370 -167 370 -371c0 -203 -166 -370 -370 -370s-368 167 -368 370zM116 354c0 -163 124 -291 283 -291s283 128 283 291c0 164 -124 292 -283 292s-283 -128 -283 -292zM583 427l-90 -27c-7 32 -31 62 -79 62c-50 0 -104 -43 -104 -128
c0 -55 34 -87 84 -87c44 0 71 26 86 55l81 -33c-26 -58 -84 -114 -173 -114c-106 0 -177 77 -177 176c0 134 99 221 210 221c102 0 150 -65 162 -125z" />
    <glyph glyph-name="ordfeminine" unicode="&#xaa;" horiz-adv-x="455" 
d="M234 565c-55 0 -83 -57 -83 -109c0 -46 26 -72 63 -72c41 0 82 38 82 112c0 45 -25 69 -62 69zM332 648h99l-59 -274c-4 -16 -7 -36 -7 -56c0 -6 0 -8 1 -16h-93c-1 6 -1 13 -1 15c0 7 1 17 3 26c-15 -21 -43 -47 -91 -47c-84 0 -135 69 -135 155c0 120 78 206 176 206
c66 0 91 -31 98 -46z" />
    <glyph glyph-name="guillemotleft" unicode="&#xab;" horiz-adv-x="520" 
d="M226 101h-120l-100 197l176 194h133l-185 -202zM445 101h-120l-100 197l176 194h133l-185 -202z" />
    <glyph glyph-name="logicalnot" unicode="&#xac;" horiz-adv-x="626" 
d="M540 136h-114v195h-375v110h489v-305z" />
    <glyph glyph-name="uni00AD" unicode="&#xad;" horiz-adv-x="365" 
d="M301 238h-290l25 118h291z" />
    <glyph glyph-name="registered" unicode="&#xae;" horiz-adv-x="812" 
d="M31 354c0 204 164 371 368 371s370 -167 370 -371c0 -203 -166 -370 -370 -370s-368 167 -368 370zM116 354c0 -163 124 -291 283 -291s283 128 283 291c0 164 -124 292 -283 292s-283 -128 -283 -292zM377 370h43c40 0 72 24 72 65c0 27 -17 42 -50 42h-41zM435 157
l-44 137h-30l-29 -139h-94l85 399h145c71 0 118 -52 118 -113c0 -66 -43 -120 -106 -138l52 -146h-97z" />
    <glyph glyph-name="macron" unicode="&#xaf;" horiz-adv-x="317" 
d="M259 577h-282l21 97h281z" />
    <glyph glyph-name="degree" unicode="&#xb0;" horiz-adv-x="390" 
d="M202 431c36 0 73 29 73 80c0 35 -22 59 -58 59c-35 0 -72 -31 -72 -80c0 -34 21 -59 57 -59zM194 337c-86 0 -148 65 -148 147c0 104 86 180 180 180c85 0 148 -66 148 -148c0 -105 -90 -179 -180 -179z" />
    <glyph glyph-name="plusminus" unicode="&#xb1;" horiz-adv-x="614" 
d="M355 313v-123h-112v123h-178v108h178v123h112v-123h178v-108h-178zM65 44v109h468v-109h-468z" />
    <glyph glyph-name="twosuperior" unicode="&#xb2;" horiz-adv-x="383" 
d="M167 517l65 28c31 13 47 29 47 51c0 17 -10 39 -40 39c-36 0 -54 -24 -54 -63l-92 6c0 79 59 138 149 138c93 0 139 -52 139 -112c0 -59 -42 -102 -106 -129l-76 -32c-11 -5 -16 -11 -18 -17h161l-18 -85h-281c3 82 45 142 124 176z" />
    <glyph glyph-name="threesuperior" unicode="&#xb3;" horiz-adv-x="428" 
d="M197 504l-26 66l108 56h-165l18 83h280l-19 -95l-102 -53c46 -9 78 -47 78 -97c0 -69 -64 -131 -158 -131c-89 0 -145 56 -145 121c0 4 0 11 1 17l93 5c-1 -4 -1 -7 -1 -8c0 -28 20 -52 54 -52s55 20 55 51c0 27 -22 41 -47 41c-11 0 -18 -2 -24 -4z" />
    <glyph glyph-name="acute" unicode="&#xb4;" horiz-adv-x="277" 
d="M251 701l-168 -150h-114l120 150h162z" />
    <glyph glyph-name="mu" unicode="&#xb5;" horiz-adv-x="599" 
d="M53 -190v682h133v-284c0 -55 28 -99 90 -99c59 0 93 40 93 97v286h133v-403c0 -34 3 -71 5 -89h-127c-2 10 -4 34 -4 53c-26 -46 -84 -66 -136 -66c-20 0 -38 4 -54 10v-187h-133z" />
    <glyph glyph-name="paragraph" unicode="&#xb6;" horiz-adv-x="669" 
d="M402 607l-170 -801h-105l106 495h-9c-99 0 -173 74 -173 169c0 158 145 239 283 239h389l-22 -102h-97l-170 -801h-106l170 801h-96z" />
    <glyph glyph-name="periodcentered" unicode="&#xb7;" horiz-adv-x="283" 
d="M46 301c0 48 42 93 94 93c46 0 77 -34 77 -75c0 -54 -43 -94 -93 -94c-47 0 -78 34 -78 76z" />
    <glyph glyph-name="cedilla" unicode="&#xb8;" horiz-adv-x="280" 
d="M107 13h92l-69 -66c48 -5 76 -38 76 -76c0 -48 -40 -100 -125 -100c-77 0 -122 50 -131 68l55 46c8 -13 29 -45 73 -45c22 0 41 10 41 29c0 20 -18 29 -40 29c-7 0 -12 -1 -17 -2l-24 50z" />
    <glyph glyph-name="onesuperior" unicode="&#xb9;" horiz-adv-x="304" 
d="M201 342h-102l49 228h-89l14 66c60 1 102 37 117 73h89z" />
    <glyph glyph-name="ordmasculine" unicode="&#xba;" horiz-adv-x="430" 
d="M237 567c-51 0 -86 -51 -86 -109c0 -46 28 -73 65 -73c40 0 87 34 87 108c0 48 -26 73 -66 74zM405 497c0 -110 -80 -205 -196 -205c-95 0 -160 70 -160 162c0 123 90 205 196 205c98 0 160 -70 160 -162z" />
    <glyph glyph-name="guillemotright" unicode="&#xbb;" horiz-adv-x="518" 
d="M44 492h120l101 -198l-177 -193h-132l184 202zM267 492h120l101 -198l-177 -193h-132l184 202z" />
    <glyph glyph-name="onequarter" unicode="&#xbc;" horiz-adv-x="812" 
d="M196 282h-102l49 228h-89l14 66c60 1 102 37 117 73h89zM383 73l21 104l203 191h111l-46 -217h61l-17 -78h-61c0 -1 -9 -44 -15 -73h-101l16 73h-172zM571 151l25 111l-117 -111h92zM726 649l-593 -649h-121l593 649h121z" />
    <glyph glyph-name="onehalf" unicode="&#xbd;" horiz-adv-x="841" 
d="M197 282h-102l49 228h-89l14 66c60 1 102 37 117 73h89zM726 649l-593 -649h-121l593 649h121zM559 176l65 28c31 13 47 29 47 51c0 17 -10 39 -40 39c-36 0 -54 -24 -54 -63l-92 6c0 79 59 138 149 138c93 0 139 -52 139 -112c0 -59 -42 -102 -106 -129l-76 -32
c-11 -5 -16 -11 -18 -17h161l-18 -85h-281c3 82 45 142 124 176z" />
    <glyph glyph-name="threequarters" unicode="&#xbe;" horiz-adv-x="917" 
d="M177 444l-26 66l108 56h-165l18 83h280l-19 -95l-102 -53c46 -9 78 -47 78 -97c0 -69 -64 -131 -158 -131c-89 0 -145 56 -145 121c0 4 0 11 1 17l93 5c-1 -4 -1 -7 -1 -8c0 -28 20 -52 54 -52s55 20 55 51c0 27 -22 41 -47 41c-11 0 -18 -2 -24 -4zM488 73l21 104
l203 191h111l-46 -217h61l-17 -78h-61c0 -1 -9 -44 -15 -73h-101l16 73h-172zM676 151l25 111l-117 -111h92zM831 649l-593 -649h-121l593 649h121z" />
    <glyph glyph-name="questiondown" unicode="&#xbf;" horiz-adv-x="447" 
d="M179 284h107c-1 -64 -20 -138 -109 -188l-56 -32c-40 -23 -58 -57 -58 -93c0 -39 25 -78 87 -78c77 0 115 63 115 130l124 -14c-2 -132 -101 -234 -248 -234c-145 0 -216 89 -216 177c0 100 57 163 136 208l47 27c46 26 67 54 71 97zM327 436c0 -48 -40 -88 -88 -88
c-44 0 -71 32 -71 71c0 49 41 88 86 88c43 0 73 -31 73 -71z" />
    <glyph glyph-name="Agrave" unicode="&#xc0;" horiz-adv-x="680" 
d="M470 0l-23 162h-274l-91 -162h-155l415 709h158l113 -709h-143zM392 554l-148 -266h185zM369 759l-116 127h155l76 -127h-115z" />
    <glyph glyph-name="Aacute" unicode="&#xc1;" horiz-adv-x="680" 
d="M470 0l-23 162h-274l-91 -162h-155l415 709h158l113 -709h-143zM392 554l-148 -266h185zM655 886l-169 -127h-128l128 127h169z" />
    <glyph glyph-name="Acircumflex" unicode="&#xc2;" horiz-adv-x="680" 
d="M470 0l-23 162h-274l-91 -162h-155l415 709h158l113 -709h-143zM392 554l-148 -266h185zM358 759h-125l146 127h137l94 -127h-116l-54 65z" />
    <glyph glyph-name="Atilde" unicode="&#xc3;" horiz-adv-x="680" 
d="M470 0l-23 162h-274l-91 -162h-155l415 709h158l113 -709h-143zM392 554l-148 -266h185zM614 890c-15 -101 -64 -137 -123 -137c-30 0 -54 12 -73 24l-5 3c-17 10 -32 20 -47 20c-17 0 -31 -13 -36 -43h-85c10 101 67 136 126 136c31 0 55 -13 74 -25l3 -2
c18 -12 29 -19 44 -19c18 0 32 12 37 43h85z" />
    <glyph glyph-name="Adieresis" unicode="&#xc4;" horiz-adv-x="680" 
d="M200 815c0 41 35 80 80 80c39 0 65 -29 65 -64c0 -47 -38 -80 -79 -80c-39 0 -66 27 -66 64zM519 815c0 41 35 80 80 80c39 0 65 -29 65 -64c0 -47 -38 -80 -79 -80c-39 0 -66 27 -66 64zM470 0l-23 162h-274l-91 -162h-155l415 709h158l113 -709h-143zM392 554
l-148 -266h185z" />
    <glyph glyph-name="Aring" unicode="&#xc5;" horiz-adv-x="680" 
d="M392 552l-148 -264h185zM429 807c-27 0 -54 -23 -54 -55c0 -26 19 -43 46 -43c28 0 55 21 55 54c0 26 -20 44 -47 44zM290 744c0 81 69 145 148 145c70 0 126 -51 126 -119c0 -46 -23 -86 -56 -112l105 -658h-143l-23 162h-274l-91 -162h-155l391 668
c-18 20 -28 46 -28 76z" />
    <glyph glyph-name="AE" unicode="&#xc6;" horiz-adv-x="1056" 
d="M648 130h304l-28 -130h-442l35 165h-275l-140 -165h-176l619 709h529l-27 -130h-304l-34 -162h275l-26 -123h-275zM341 281h201l67 314z" />
    <glyph glyph-name="Ccedilla" unicode="&#xc7;" horiz-adv-x="718" 
d="M243 -54l44 43c-154 24 -255 151 -255 317c0 266 191 417 386 418c191 0 278 -121 297 -229l-134 -40c-13 64 -62 138 -173 138c-127 0 -235 -112 -235 -279c0 -116 70 -197 184 -197c101 0 158 66 187 133l124 -50c-41 -98 -133 -204 -293 -215l-40 -38
c48 -5 76 -38 76 -76c0 -48 -40 -100 -125 -100c-77 0 -122 50 -131 68l55 46c8 -13 29 -45 73 -45c22 0 41 10 41 29c0 20 -18 29 -40 29c-7 0 -12 -1 -17 -2z" />
    <glyph glyph-name="Egrave" unicode="&#xc8;" horiz-adv-x="580" 
d="M348 759l-116 127h155l76 -127h-115zM448 0h-442l150 709h442l-28 -130h-303l-35 -162h275l-26 -123h-275l-35 -164h304z" />
    <glyph glyph-name="Eacute" unicode="&#xc9;" horiz-adv-x="580" 
d="M597 886l-169 -127h-128l128 127h169zM448 0h-442l150 709h442l-28 -130h-303l-35 -162h275l-26 -123h-275l-35 -164h304z" />
    <glyph glyph-name="Ecircumflex" unicode="&#xca;" horiz-adv-x="580" 
d="M320 759h-125l146 127h137l94 -127h-116l-54 65zM448 0h-442l150 709h442l-28 -130h-303l-35 -162h275l-26 -123h-275l-35 -164h304z" />
    <glyph glyph-name="Edieresis" unicode="&#xcb;" horiz-adv-x="580" 
d="M214 815c0 42 36 79 80 79c38 0 64 -28 64 -63c0 -46 -37 -79 -79 -79c-38 0 -65 26 -65 63zM429 815c0 42 36 79 80 79c38 0 64 -28 64 -63c0 -46 -37 -79 -79 -79c-38 0 -65 26 -65 63zM448 0h-442l150 709h442l-28 -130h-303l-35 -162h275l-26 -123h-275l-35 -164h304
z" />
    <glyph glyph-name="Igrave" unicode="&#xcc;" horiz-adv-x="302" 
d="M146 0h-140l150 709h140zM184 759l-116 127h155l76 -127h-115z" />
    <glyph glyph-name="Iacute" unicode="&#xcd;" horiz-adv-x="302" 
d="M146 0h-140l150 709h140zM466 886l-169 -127h-128l128 127h169z" />
    <glyph glyph-name="Icircumflex" unicode="&#xce;" horiz-adv-x="302" 
d="M146 0h-140l150 709h140zM170 759h-125l146 127h137l94 -127h-116l-54 65z" />
    <glyph glyph-name="Idieresis" unicode="&#xcf;" horiz-adv-x="302" 
d="M146 0h-140l150 709h140zM81 815c0 40 34 77 77 77c36 0 61 -28 61 -61c0 -45 -35 -76 -76 -76c-36 0 -62 25 -62 60zM266 815c0 40 34 77 77 77c36 0 61 -28 61 -61c0 -45 -35 -76 -76 -76c-36 0 -62 25 -62 60z" />
    <glyph glyph-name="Eth" unicode="&#xd0;" horiz-adv-x="727" 
d="M9 313l21 102h85l62 294h210c193 0 308 -119 308 -295c0 -268 -186 -414 -380 -414h-287l66 313h-85zM191 130h129c115 0 234 102 234 271c0 110 -59 180 -179 180h-88l-35 -166h149l-21 -102h-150z" />
    <glyph glyph-name="Ntilde" unicode="&#xd1;" horiz-adv-x="748" 
d="M655 890c-15 -101 -64 -137 -123 -137c-30 0 -54 12 -73 24l-5 3c-17 10 -32 20 -47 20c-17 0 -31 -13 -36 -43h-85c10 101 67 136 126 136c31 0 55 -13 74 -25l3 -2c18 -12 29 -19 44 -19c18 0 32 12 37 43h85zM592 0h-138l-205 501l-106 -501h-137l150 709h159
l188 -473l101 473h138z" />
    <glyph glyph-name="Ograve" unicode="&#xd2;" horiz-adv-x="758" 
d="M393 759l-116 127h155l76 -127h-115zM32 302c0 269 188 422 381 422c189 0 313 -128 313 -317c0 -269 -188 -422 -380 -422c-188 0 -314 129 -314 317zM584 399c0 119 -68 194 -179 194c-132 0 -232 -126 -232 -281c0 -120 71 -194 179 -194c127 0 230 115 232 281z" />
    <glyph glyph-name="Oacute" unicode="&#xd3;" horiz-adv-x="758" 
d="M666 886l-169 -127h-128l128 127h169zM32 302c0 269 188 422 381 422c189 0 313 -128 313 -317c0 -269 -188 -422 -380 -422c-188 0 -314 129 -314 317zM584 399c0 119 -68 194 -179 194c-132 0 -232 -126 -232 -281c0 -120 71 -194 179 -194c127 0 230 115 232 281z" />
    <glyph glyph-name="Ocircumflex" unicode="&#xd4;" horiz-adv-x="758" 
d="M377 759h-125l146 127h137l94 -127h-116l-54 65zM32 302c0 269 188 422 381 422c189 0 313 -128 313 -317c0 -269 -188 -422 -380 -422c-188 0 -314 129 -314 317zM584 399c0 119 -68 194 -179 194c-132 0 -232 -126 -232 -281c0 -120 71 -194 179 -194
c127 0 230 115 232 281z" />
    <glyph glyph-name="Otilde" unicode="&#xd5;" horiz-adv-x="758" 
d="M644 890c-15 -101 -64 -137 -123 -137c-30 0 -54 12 -73 24l-5 3c-17 10 -32 20 -47 20c-17 0 -31 -13 -36 -43h-85c10 101 67 136 126 136c31 0 55 -13 74 -25l3 -2c18 -12 29 -19 44 -19c18 0 32 12 37 43h85zM32 302c0 269 188 422 381 422c189 0 313 -128 313 -317
c0 -269 -188 -422 -380 -422c-188 0 -314 129 -314 317zM584 399c0 119 -68 194 -179 194c-132 0 -232 -126 -232 -281c0 -120 71 -194 179 -194c127 0 230 115 232 281z" />
    <glyph glyph-name="Odieresis" unicode="&#xd6;" horiz-adv-x="758" 
d="M203 815c0 41 35 80 80 80c39 0 65 -29 65 -64c0 -47 -38 -80 -79 -80c-39 0 -66 27 -66 64zM562 815c0 41 35 80 80 80c39 0 65 -29 65 -64c0 -47 -38 -80 -79 -80c-39 0 -66 27 -66 64zM32 302c0 269 188 422 381 422c189 0 313 -128 313 -317
c0 -269 -188 -422 -380 -422c-188 0 -314 129 -314 317zM584 399c0 119 -68 194 -179 194c-132 0 -232 -126 -232 -281c0 -120 71 -194 179 -194c127 0 230 115 232 281z" />
    <glyph glyph-name="multiply" unicode="&#xd7;" horiz-adv-x="573" 
d="M121 48l-79 79l165 168l-165 168l80 79l164 -167l165 167l80 -78l-166 -169l166 -168l-79 -80l-166 168z" />
    <glyph glyph-name="Oslash" unicode="&#xd8;" horiz-adv-x="758" 
d="M32 302c0 269 188 422 381 422c70 0 132 -18 181 -50l75 84l80 -70l-78 -88c36 -51 55 -118 55 -193c0 -269 -188 -422 -380 -422c-69 0 -129 17 -178 48l-72 -81l-82 70l76 85c-37 52 -58 119 -58 195zM173 312c0 -35 6 -66 17 -92l311 349c-27 15 -59 24 -96 24
c-132 0 -232 -126 -232 -281zM584 399c0 32 -5 61 -15 86l-307 -346c25 -14 56 -21 90 -21c127 0 230 115 232 281z" />
    <glyph glyph-name="Ugrave" unicode="&#xd9;" horiz-adv-x="676" 
d="M379 759l-116 127h155l76 -127h-115zM540 709h140l-103 -485c-33 -157 -144 -239 -282 -239c-150 0 -249 88 -249 227c0 22 3 45 8 69l90 428h138l-91 -434c-3 -16 -5 -31 -5 -45c0 -66 36 -111 120 -111c72 0 119 44 137 128z" />
    <glyph glyph-name="Uacute" unicode="&#xda;" horiz-adv-x="676" 
d="M628 886l-169 -127h-128l128 127h169zM540 709h140l-103 -485c-33 -157 -144 -239 -282 -239c-150 0 -249 88 -249 227c0 22 3 45 8 69l90 428h138l-91 -434c-3 -16 -5 -31 -5 -45c0 -66 36 -111 120 -111c72 0 119 44 137 128z" />
    <glyph glyph-name="Ucircumflex" unicode="&#xdb;" horiz-adv-x="676" 
d="M353 759h-125l146 127h137l94 -127h-116l-54 65zM540 709h140l-103 -485c-33 -157 -144 -239 -282 -239c-150 0 -249 88 -249 227c0 22 3 45 8 69l90 428h138l-91 -434c-3 -16 -5 -31 -5 -45c0 -66 36 -111 120 -111c72 0 119 44 137 128z" />
    <glyph glyph-name="Udieresis" unicode="&#xdc;" horiz-adv-x="676" 
d="M234 815c0 41 35 80 80 80c39 0 65 -29 65 -64c0 -47 -38 -80 -79 -80c-39 0 -66 27 -66 64zM473 815c0 41 35 80 80 80c39 0 65 -29 65 -64c0 -47 -38 -80 -79 -80c-39 0 -66 27 -66 64zM540 709h140l-103 -485c-33 -157 -144 -239 -282 -239c-150 0 -249 88 -249 227
c0 22 3 45 8 69l90 428h138l-91 -434c-3 -16 -5 -31 -5 -45c0 -66 36 -111 120 -111c72 0 119 44 137 128z" />
    <glyph glyph-name="Yacute" unicode="&#xdd;" horiz-adv-x="626" 
d="M237 299l-157 410h146l101 -278l197 278h166l-315 -412l-63 -297h-138zM600 886l-169 -127h-128l128 127h169z" />
    <glyph glyph-name="Thorn" unicode="&#xde;" horiz-adv-x="585" 
d="M331 460h-87l-44 -201h101c77 0 132 38 133 115c0 52 -32 86 -103 86zM145 0h-139l150 709h139l-27 -129h94c128 0 214 -80 214 -195c0 -152 -114 -245 -274 -245h-127z" />
    <glyph glyph-name="germandbls" unicode="&#xdf;" horiz-adv-x="599" 
d="M394 331c0 -13 10 -23 28 -35l26 -17c48 -32 79 -79 79 -133c0 -64 -52 -162 -183 -162c-107 0 -160 68 -160 138c0 8 1 16 2 24l110 9c-2 -5 -2 -9 -2 -14c0 -25 11 -56 55 -56c35 0 52 24 52 47c0 20 -10 34 -35 50l-25 16c-42 26 -80 67 -80 118c0 74 48 112 90 133
l22 11c42 21 64 42 64 80c0 30 -27 67 -92 67c-50 0 -100 -29 -118 -117l-103 -490h-131l107 513c31 150 140 211 252 211c140 0 216 -84 216 -172c0 -98 -63 -149 -120 -175l-22 -10c-19 -9 -32 -18 -32 -36z" />
    <glyph glyph-name="agrave" unicode="&#xe0;" horiz-adv-x="580" 
d="M269 385c-85 0 -130 -90 -130 -170c0 -68 37 -109 96 -109c68 0 128 65 128 174c0 65 -35 105 -94 105zM413 492h129l-81 -384c-6 -29 -9 -61 -9 -89c0 -4 0 -10 1 -19h-123c-1 8 -1 16 -1 23c0 10 1 25 2 37c-23 -34 -66 -69 -132 -69c-121 0 -192 98 -192 219
c0 167 109 294 251 294c91 0 130 -42 143 -68zM250 551l-103 150h148l58 -150h-103z" />
    <glyph glyph-name="aacute" unicode="&#xe1;" horiz-adv-x="580" 
d="M269 385c-85 0 -130 -90 -130 -170c0 -68 37 -109 96 -109c68 0 128 65 128 174c0 65 -35 105 -94 105zM413 492h129l-81 -384c-6 -29 -9 -61 -9 -89c0 -4 0 -10 1 -19h-123c-1 8 -1 16 -1 23c0 10 1 25 2 37c-23 -34 -66 -69 -132 -69c-121 0 -192 98 -192 219
c0 167 109 294 251 294c91 0 130 -42 143 -68zM515 701l-168 -150h-114l120 150h162z" />
    <glyph glyph-name="acircumflex" unicode="&#xe2;" horiz-adv-x="580" 
d="M241 552h-114l144 147h132l80 -147h-104l-53 75zM269 385c-85 0 -130 -90 -130 -170c0 -68 37 -109 96 -109c68 0 128 65 128 174c0 65 -35 105 -94 105zM413 492h129l-81 -384c-6 -29 -9 -61 -9 -89c0 -4 0 -10 1 -19h-123c-1 8 -1 16 -1 23c0 10 1 25 2 37
c-23 -34 -66 -69 -132 -69c-121 0 -192 98 -192 219c0 167 109 294 251 294c91 0 130 -42 143 -68z" />
    <glyph glyph-name="atilde" unicode="&#xe3;" horiz-adv-x="580" 
d="M269 385c-85 0 -130 -90 -130 -170c0 -68 37 -109 96 -109c68 0 128 65 128 174c0 65 -35 105 -94 105zM413 492h129l-81 -384c-6 -29 -9 -61 -9 -89c0 -4 0 -10 1 -19h-123c-1 8 -1 16 -1 23c0 10 1 25 2 37c-23 -34 -66 -69 -132 -69c-121 0 -192 98 -192 219
c0 167 109 294 251 294c91 0 130 -42 143 -68zM218 556h-86c11 103 70 142 131 142c32 0 54 -11 72 -23l5 -3c15 -10 28 -19 45 -19c23 0 36 16 41 44h86c-15 -103 -68 -143 -127 -143c-28 0 -54 11 -73 23l-8 5c-12 7 -25 17 -44 17c-21 0 -36 -12 -42 -43z" />
    <glyph glyph-name="adieresis" unicode="&#xe4;" horiz-adv-x="580" 
d="M146 621c0 40 35 78 78 78c38 0 64 -30 64 -65c0 -44 -40 -76 -79 -76c-37 0 -63 29 -63 63zM356 621c0 40 35 78 78 78c38 0 64 -30 64 -65c0 -44 -40 -76 -79 -76c-37 0 -63 29 -63 63zM269 385c-85 0 -130 -90 -130 -170c0 -68 37 -109 96 -109c68 0 128 65 128 174
c0 65 -35 105 -94 105zM413 492h129l-81 -384c-6 -29 -9 -61 -9 -89c0 -4 0 -10 1 -19h-123c-1 8 -1 16 -1 23c0 10 1 25 2 37c-23 -34 -66 -69 -132 -69c-121 0 -192 98 -192 219c0 167 109 294 251 294c91 0 130 -42 143 -68z" />
    <glyph glyph-name="aring" unicode="&#xe5;" horiz-adv-x="580" 
d="M269 385c-85 0 -130 -90 -130 -170c0 -68 37 -109 96 -109c68 0 128 65 128 174c0 65 -35 105 -94 105zM413 492h129l-81 -384c-6 -29 -9 -61 -9 -89c0 -4 0 -10 1 -19h-123c-1 8 -1 16 -1 23c0 10 1 25 2 37c-23 -34 -66 -69 -132 -69c-121 0 -192 98 -192 219
c0 167 109 294 251 294c91 0 130 -42 143 -68zM331 764c59 0 106 -41 106 -100c0 -69 -60 -121 -124 -121c-59 0 -105 43 -105 100c0 72 61 121 123 121zM280 649c0 -22 16 -36 38 -36c24 0 44 18 44 44c0 21 -15 36 -37 36s-45 -17 -45 -44z" />
    <glyph glyph-name="ae" unicode="&#xe6;" horiz-adv-x="843" 
d="M292 294c30 1 45 18 45 44c0 31 -28 62 -87 62c-51 0 -87 -31 -98 -70l-110 36c22 72 100 141 216 141c79 0 131 -25 160 -60c44 39 100 60 158 60c137 0 215 -87 215 -207c0 -29 -5 -63 -14 -89h-339c-1 -3 -1 -4 -1 -7c1 -61 42 -108 110 -108c54 0 92 30 109 64
l101 -51c-32 -64 -105 -124 -219 -124c-75 0 -141 32 -180 91c-35 -46 -95 -89 -183 -89c-121 0 -184 67 -184 142c0 96 71 156 171 160zM122 139c0 -34 29 -54 66 -54c46 0 109 31 122 113l2 13l-118 -5c-37 -2 -72 -23 -72 -67zM574 399c-68 0 -107 -44 -123 -97h214
c1 2 1 9 1 12c0 37 -24 85 -92 85z" />
    <glyph glyph-name="ccedilla" unicode="&#xe7;" horiz-adv-x="522" 
d="M126 -54l48 47c-104 24 -169 111 -169 223c0 176 131 291 277 291c134 0 198 -85 213 -165l-120 -36c-8 41 -40 80 -102 80c-65 0 -136 -56 -136 -167c0 -71 44 -113 109 -113c58 0 92 35 111 72l110 -43c-33 -73 -103 -143 -210 -150l-39 -38c48 -5 76 -38 76 -76
c0 -48 -40 -100 -125 -100c-77 0 -122 50 -131 68l55 46c8 -13 29 -45 73 -45c22 0 41 10 41 29c0 20 -18 29 -40 29c-7 0 -12 -1 -17 -2z" />
    <glyph glyph-name="egrave" unicode="&#xe8;" horiz-adv-x="539" 
d="M145 302h216c1 7 1 10 1 12c0 37 -24 85 -93 85c-67 0 -108 -44 -124 -97zM473 211l-342 -1c0 -64 38 -114 110 -114c54 0 92 30 110 64l102 -51c-32 -64 -105 -124 -220 -124c-123 0 -226 88 -226 227c0 182 132 295 264 295c137 0 216 -87 216 -207
c0 -29 -6 -63 -14 -89zM255 551l-103 150h148l58 -150h-103z" />
    <glyph glyph-name="eacute" unicode="&#xe9;" horiz-adv-x="539" 
d="M508 701l-168 -150h-114l120 150h162zM145 302h216c1 7 1 10 1 12c0 37 -24 85 -93 85c-67 0 -108 -44 -124 -97zM473 211l-342 -1c0 -64 38 -114 110 -114c54 0 92 30 110 64l102 -51c-32 -64 -105 -124 -220 -124c-123 0 -226 88 -226 227c0 182 132 295 264 295
c137 0 216 -87 216 -207c0 -29 -6 -63 -14 -89z" />
    <glyph glyph-name="ecircumflex" unicode="&#xea;" horiz-adv-x="539" 
d="M231 552h-114l144 147h132l80 -147h-104l-53 75zM145 302h216c1 7 1 10 1 12c0 37 -24 85 -93 85c-67 0 -108 -44 -124 -97zM473 211l-342 -1c0 -64 38 -114 110 -114c54 0 92 30 110 64l102 -51c-32 -64 -105 -124 -220 -124c-123 0 -226 88 -226 227
c0 182 132 295 264 295c137 0 216 -87 216 -207c0 -29 -6 -63 -14 -89z" />
    <glyph glyph-name="edieresis" unicode="&#xeb;" horiz-adv-x="539" 
d="M133 621c0 40 35 78 78 78c38 0 64 -30 64 -65c0 -44 -40 -76 -79 -76c-37 0 -63 29 -63 63zM343 621c0 40 35 78 78 78c38 0 64 -30 64 -65c0 -44 -40 -76 -79 -76c-37 0 -63 29 -63 63zM145 302h216c1 7 1 10 1 12c0 37 -24 85 -93 85c-67 0 -108 -44 -124 -97z
M473 211l-342 -1c0 -64 38 -114 110 -114c54 0 92 30 110 64l102 -51c-32 -64 -105 -124 -220 -124c-123 0 -226 88 -226 227c0 182 132 295 264 295c137 0 216 -87 216 -207c0 -29 -6 -63 -14 -89z" />
    <glyph glyph-name="igrave" unicode="&#xec;" horiz-adv-x="277" 
d="M129 0h-133l105 492h133zM127 551l-103 150h148l58 -150h-103z" />
    <glyph glyph-name="iacute" unicode="&#xed;" horiz-adv-x="277" 
d="M402 701l-168 -150h-114l120 150h162zM129 0h-133l105 492h133z" />
    <glyph glyph-name="icircumflex" unicode="&#xee;" horiz-adv-x="277" 
d="M110 552h-114l144 147h132l80 -147h-104l-53 75zM129 0h-133l105 492h133z" />
    <glyph glyph-name="idieresis" unicode="&#xef;" horiz-adv-x="277" 
d="M129 0h-133l105 492h133zM42 621c0 39 34 74 75 74c36 0 61 -27 61 -60c0 -43 -38 -74 -75 -74c-38 0 -61 27 -61 60zM210 621c0 39 34 74 75 74c36 0 61 -27 61 -60c0 -43 -38 -74 -75 -74c-38 0 -61 27 -61 60z" />
    <glyph glyph-name="eth" unicode="&#xf0;" horiz-adv-x="557" 
d="M527 622l-83 -36c45 -58 73 -135 73 -230c0 -225 -119 -371 -289 -371c-147 0 -228 103 -228 219c0 146 108 252 248 252c67 0 118 -25 142 -60c-6 55 -29 103 -63 139l-134 -59l-32 77l88 38c-33 16 -71 26 -109 30l38 106c68 -5 141 -30 202 -77l114 50zM364 244
c0 63 -42 103 -105 103c-67 0 -127 -51 -127 -141c0 -55 36 -106 103 -106c66 0 129 53 129 144z" />
    <glyph glyph-name="ntilde" unicode="&#xf1;" horiz-adv-x="580" 
d="M230 556h-86c11 103 70 142 131 142c32 0 54 -11 72 -23l5 -3c15 -10 28 -19 45 -19c23 0 36 16 41 44h86c-15 -103 -68 -143 -127 -143c-28 0 -54 11 -73 23l-8 5c-12 7 -25 17 -44 17c-21 0 -36 -12 -42 -43zM441 0h-133l61 285c2 10 3 20 3 29c0 44 -26 73 -75 73
c-57 0 -92 -47 -104 -102l-62 -285h-132l86 408c10 46 10 77 10 84h129c0 -8 0 -30 -3 -50c32 45 87 63 138 63c98 0 152 -66 152 -155c0 -17 -2 -34 -6 -52z" />
    <glyph glyph-name="ograve" unicode="&#xf2;" horiz-adv-x="559" 
d="M257 551l-103 150h148l58 -150h-103zM273 386c-76 0 -133 -72 -133 -166c0 -71 42 -114 101 -114c62 0 133 55 133 167c0 72 -40 113 -101 113zM507 278c0 -159 -114 -293 -275 -293c-137 0 -225 101 -225 229c0 174 124 293 276 293c140 0 224 -101 224 -229z" />
    <glyph glyph-name="oacute" unicode="&#xf3;" horiz-adv-x="559" 
d="M515 701l-168 -150h-114l120 150h162zM273 386c-76 0 -133 -72 -133 -166c0 -71 42 -114 101 -114c62 0 133 55 133 167c0 72 -40 113 -101 113zM507 278c0 -159 -114 -293 -275 -293c-137 0 -225 101 -225 229c0 174 124 293 276 293c140 0 224 -101 224 -229z" />
    <glyph glyph-name="ocircumflex" unicode="&#xf4;" horiz-adv-x="559" 
d="M238 552h-114l144 147h132l80 -147h-104l-53 75zM273 386c-76 0 -133 -72 -133 -166c0 -71 42 -114 101 -114c62 0 133 55 133 167c0 72 -40 113 -101 113zM507 278c0 -159 -114 -293 -275 -293c-137 0 -225 101 -225 229c0 174 124 293 276 293c140 0 224 -101 224 -229
z" />
    <glyph glyph-name="otilde" unicode="&#xf5;" horiz-adv-x="559" 
d="M273 386c-76 0 -133 -72 -133 -166c0 -71 42 -114 101 -114c62 0 133 55 133 167c0 72 -40 113 -101 113zM507 278c0 -159 -114 -293 -275 -293c-137 0 -225 101 -225 229c0 174 124 293 276 293c140 0 224 -101 224 -229zM203 556h-86c11 103 70 142 131 142
c32 0 54 -11 72 -23l5 -3c15 -10 28 -19 45 -19c23 0 36 16 41 44h86c-15 -103 -68 -143 -127 -143c-28 0 -54 11 -73 23l-8 5c-12 7 -25 17 -44 17c-21 0 -36 -12 -42 -43z" />
    <glyph glyph-name="odieresis" unicode="&#xf6;" horiz-adv-x="559" 
d="M138 621c0 40 35 78 78 78c38 0 64 -30 64 -65c0 -44 -40 -76 -79 -76c-37 0 -63 29 -63 63zM348 621c0 40 35 78 78 78c38 0 64 -30 64 -65c0 -44 -40 -76 -79 -76c-37 0 -63 29 -63 63zM273 386c-76 0 -133 -72 -133 -166c0 -71 42 -114 101 -114c62 0 133 55 133 167
c0 72 -40 113 -101 113zM507 278c0 -159 -114 -293 -275 -293c-137 0 -225 101 -225 229c0 174 124 293 276 293c140 0 224 -101 224 -229z" />
    <glyph glyph-name="divide" unicode="&#xf7;" horiz-adv-x="581" 
d="M199 479c0 42 35 77 78 77s78 -35 78 -77s-35 -78 -78 -78s-78 36 -78 78zM199 112c0 43 35 78 78 78s78 -35 78 -78c0 -42 -35 -78 -78 -78s-78 36 -78 78zM35 240v111h489v-111h-489z" />
    <glyph glyph-name="oslash" unicode="&#xf8;" horiz-adv-x="559" 
d="M21 -34l-55 56l72 69c-20 36 -31 77 -31 123c0 174 124 293 276 293c57 0 105 -17 142 -46l69 67l55 -57l-73 -70c20 -35 31 -78 31 -123c0 -159 -114 -293 -275 -293c-57 0 -105 17 -142 47zM374 273c0 10 -1 19 -2 28l-188 -179c16 -11 35 -16 57 -16
c62 0 133 55 133 167zM273 386c-76 0 -133 -72 -133 -166c0 -11 1 -21 3 -29l187 179c-13 9 -29 16 -57 16z" />
    <glyph glyph-name="ugrave" unicode="&#xf9;" horiz-adv-x="567" 
d="M90 492h132l-57 -266c-5 -22 -7 -37 -7 -47c0 -44 23 -74 74 -74c55 0 88 45 100 101l62 286h132l-82 -392c-8 -36 -11 -64 -11 -89v-11h-127c-1 6 -1 17 -1 21c0 8 0 15 1 30c-26 -41 -78 -63 -123 -63c-105 0 -161 69 -161 161c0 18 2 37 10 73zM271 551l-103 150h148
l58 -150h-103z" />
    <glyph glyph-name="uacute" unicode="&#xfa;" horiz-adv-x="567" 
d="M516 701l-168 -150h-114l120 150h162zM90 492h132l-57 -266c-5 -22 -7 -37 -7 -47c0 -44 23 -74 74 -74c55 0 88 45 100 101l62 286h132l-82 -392c-8 -36 -11 -64 -11 -89v-11h-127c-1 6 -1 17 -1 21c0 8 0 15 1 30c-26 -41 -78 -63 -123 -63c-105 0 -161 69 -161 161
c0 18 2 37 10 73z" />
    <glyph glyph-name="ucircumflex" unicode="&#xfb;" horiz-adv-x="567" 
d="M252 552h-114l144 147h132l80 -147h-104l-53 75zM90 492h132l-57 -266c-5 -22 -7 -37 -7 -47c0 -44 23 -74 74 -74c55 0 88 45 100 101l62 286h132l-82 -392c-8 -36 -11 -64 -11 -89v-11h-127c-1 6 -1 17 -1 21c0 8 0 15 1 30c-26 -41 -78 -63 -123 -63
c-105 0 -161 69 -161 161c0 18 2 37 10 73z" />
    <glyph glyph-name="udieresis" unicode="&#xfc;" horiz-adv-x="567" 
d="M155 621c0 40 35 78 78 78c38 0 64 -30 64 -65c0 -44 -40 -76 -79 -76c-37 0 -63 29 -63 63zM365 621c0 40 35 78 78 78c38 0 64 -30 64 -65c0 -44 -40 -76 -79 -76c-37 0 -63 29 -63 63zM90 492h132l-57 -266c-5 -22 -7 -37 -7 -47c0 -44 23 -74 74 -74
c55 0 88 45 100 101l62 286h132l-82 -392c-8 -36 -11 -64 -11 -89v-11h-127c-1 6 -1 17 -1 21c0 8 0 15 1 30c-26 -41 -78 -63 -123 -63c-105 0 -161 69 -161 161c0 18 2 37 10 73z" />
    <glyph glyph-name="yacute" unicode="&#xfd;" horiz-adv-x="524" 
d="M109 -190h-147l170 268l-108 414h140l66 -276l166 276h149zM487 701l-168 -150h-114l120 150h162z" />
    <glyph glyph-name="thorn" unicode="&#xfe;" horiz-adv-x="603" 
d="M-41 -190l194 914h133l-58 -276c29 32 79 54 132 54c126 0 190 -89 190 -205c0 -180 -109 -309 -256 -309c-74 0 -128 32 -151 71l-52 -249h-132zM314 386c-76 0 -134 -73 -134 -167c0 -74 43 -113 101 -113c63 0 135 58 135 170c0 72 -42 110 -102 110z" />
    <glyph glyph-name="ydieresis" unicode="&#xff;" horiz-adv-x="524" 
d="M121 621c0 40 35 78 78 78c38 0 64 -30 64 -65c0 -44 -40 -76 -79 -76c-37 0 -63 29 -63 63zM331 621c0 40 35 78 78 78c38 0 64 -30 64 -65c0 -44 -40 -76 -79 -76c-37 0 -63 29 -63 63zM109 -190h-147l170 268l-108 414h140l66 -276l166 276h149z" />
    <glyph glyph-name="dotlessi" unicode="&#x131;" horiz-adv-x="277" 
d="M129 0h-133l105 492h133z" />
    <glyph glyph-name="Lslash" unicode="&#x141;" horiz-adv-x="570" 
d="M470 0h-446l60 283l-102 -42l24 111l101 41l67 316h138l-54 -254l152 63l-23 -110l-152 -63l-45 -213h308z" />
    <glyph glyph-name="lslash" unicode="&#x142;" horiz-adv-x="316" 
d="M138 0h-132l61 287l-93 -38l24 111l92 37l69 327h133l-57 -267l103 42l-24 -110l-102 -42z" />
    <glyph glyph-name="OE" unicode="&#x152;" horiz-adv-x="1081" 
d="M949 0h-442l11 54c-50 -44 -112 -69 -183 -69c-180 0 -303 131 -303 317c0 269 188 422 381 422c129 0 194 -52 223 -111l21 96h442l-28 -130h-303l-35 -162h275l-26 -123h-275l-35 -164h304zM584 399c0 119 -68 194 -179 194c-138 0 -232 -132 -232 -281
c0 -120 71 -194 179 -194c127 0 230 115 232 281z" />
    <glyph glyph-name="oe" unicode="&#x153;" horiz-adv-x="903" 
d="M598 -15c-72 0 -136 30 -177 82c-47 -50 -111 -82 -189 -82c-137 0 -225 101 -225 229c0 174 124 293 276 293c79 0 136 -31 171 -80c49 51 115 80 181 80c138 0 216 -87 216 -207c0 -29 -5 -63 -14 -89h-341c-1 -3 -1 -4 -1 -7c1 -61 43 -108 110 -108
c54 0 92 30 110 64l102 -51c-32 -64 -105 -124 -219 -124zM509 302h216c1 2 1 9 1 12c0 37 -24 85 -93 85c-67 0 -107 -44 -124 -97zM374 273c0 72 -40 113 -101 113c-76 0 -133 -72 -133 -166c0 -71 42 -114 101 -114c62 0 133 55 133 167z" />
    <glyph glyph-name="Scaron" unicode="&#x160;" horiz-adv-x="584" 
d="M463 886h128l-148 -127h-137l-92 127h115l53 -64zM264 105c68 0 109 36 110 87c0 33 -16 60 -60 79l-86 38c-90 40 -137 102 -137 190c0 133 114 224 251 224c188 0 241 -130 241 -205l-129 -22c0 27 -12 107 -118 107c-63 0 -106 -43 -106 -90c0 -38 24 -64 56 -78
l82 -36c105 -46 148 -111 148 -196c0 -111 -93 -218 -250 -218c-196 0 -267 133 -267 232c0 4 0 14 2 21l129 22c-1 -9 -1 -13 -1 -21c0 -66 39 -132 135 -134z" />
    <glyph glyph-name="scaron" unicode="&#x161;" horiz-adv-x="444" 
d="M351 700h115l-142 -148h-133l-79 148h103l54 -75zM-15 151l113 20c-1 -4 -1 -7 -1 -9c0 -42 30 -77 78 -77c42 0 61 24 61 49c0 18 -8 35 -37 48l-55 24c-75 32 -105 78 -105 138c0 87 75 163 188 163c146 0 181 -95 183 -151l-115 -18c0 31 -16 70 -72 70
c-35 0 -59 -22 -59 -49c0 -21 12 -34 31 -42l63 -27c76 -33 109 -84 109 -144c0 -75 -62 -161 -190 -161c-164 0 -192 112 -192 166z" />
    <glyph glyph-name="Ydieresis" unicode="&#x178;" horiz-adv-x="626" 
d="M198 815c0 41 35 80 80 80c39 0 65 -29 65 -64c0 -47 -38 -80 -79 -80c-39 0 -66 27 -66 64zM427 815c0 41 35 80 80 80c39 0 65 -29 65 -64c0 -47 -38 -80 -79 -80c-39 0 -66 27 -66 64zM237 299l-157 410h146l101 -278l197 278h166l-315 -412l-63 -297h-138z" />
    <glyph glyph-name="Zcaron" unicode="&#x17d;" horiz-adv-x="633" 
d="M490 886h128l-148 -127h-137l-92 127h115l53 -64zM514 0h-544l28 133l448 445h-344l28 131h530l-27 -128l-455 -450h364z" />
    <glyph glyph-name="zcaron" unicode="&#x17e;" horiz-adv-x="491" 
d="M372 700h115l-142 -148h-133l-79 148h103l54 -75zM375 0h-408l25 118l283 259h-220l24 115h395l-24 -112l-292 -265h241z" />
    <glyph glyph-name="florin" unicode="&#x192;" horiz-adv-x="495" 
d="M94 27l71 352h-98v112h121l19 92c22 111 107 157 187 157c47 0 61 -4 89 -13v-115c-18 4 -35 7 -60 7c-28 0 -73 -11 -86 -75l-11 -53h117v-112h-140l-79 -392c-22 -110 -107 -157 -187 -157c-47 0 -65 5 -92 14v114c18 -4 40 -7 65 -7c27 0 71 10 84 76z" />
    <glyph glyph-name="circumflex" unicode="&#x2c6;" horiz-adv-x="386" 
d="M82 552h-114l144 147h132l80 -147h-104l-53 75z" />
    <glyph glyph-name="caron" unicode="&#x2c7;" horiz-adv-x="386" 
d="M241 700h115l-142 -148h-133l-79 148h103l54 -75z" />
    <glyph glyph-name="uni02C9" unicode="&#x2c9;" horiz-adv-x="317" 
d="M259 577h-282l21 97h281z" />
    <glyph glyph-name="breve" unicode="&#x2d8;" horiz-adv-x="356" 
d="M217 549c-93 0 -139 60 -139 127c0 12 1 17 2 25h87c-1 -4 -1 -7 -1 -8c0 -25 14 -52 58 -52c50 0 72 33 80 60h98c-18 -79 -77 -152 -185 -152z" />
    <glyph glyph-name="dotaccent" unicode="&#x2d9;" horiz-adv-x="184" 
d="M-19 619c0 45 38 88 88 88c42 0 72 -32 72 -70c0 -51 -40 -90 -87 -90c-43 0 -73 33 -73 72z" />
    <glyph glyph-name="ring" unicode="&#x2da;" horiz-adv-x="264" 
d="M111 759c59 0 106 -41 106 -100c0 -69 -60 -121 -124 -121c-59 0 -105 43 -105 100c0 72 61 121 123 121zM60 644c0 -22 16 -36 38 -36c24 0 44 18 44 44c0 21 -15 36 -37 36s-45 -17 -45 -44z" />
    <glyph glyph-name="ogonek" unicode="&#x2db;" horiz-adv-x="206" 
d="M80 -223c-60 0 -110 37 -110 98c0 88 79 132 131 150l68 -25c-44 -17 -100 -52 -100 -99c0 -27 21 -40 47 -41c11 0 20 1 24 2l-16 -79c-12 -4 -25 -6 -44 -6z" />
    <glyph glyph-name="tilde" unicode="&#x2dc;" horiz-adv-x="373" 
d="M133 556h-86c11 103 70 142 131 142c32 0 54 -11 72 -23l5 -3c15 -10 28 -19 45 -19c23 0 36 16 41 44h86c-15 -103 -68 -143 -127 -143c-28 0 -54 11 -73 23l-8 5c-12 7 -25 17 -44 17c-21 0 -36 -12 -42 -43z" />
    <glyph glyph-name="hungarumlaut" unicode="&#x2dd;" horiz-adv-x="378" 
d="M184 701l-130 -150h-88l84 150h134zM352 701l-145 -150h-89l99 150h135z" />
    <glyph glyph-name="uni0394" unicode="&#x394;" horiz-adv-x="668" 
d="M466 128l-155 431l-154 -431h309zM-34 0l270 709h150l271 -709h-691z" />
    <glyph glyph-name="uni03A9" unicode="&#x3a9;" horiz-adv-x="790" 
d="M392 595c-103 0 -203 -71 -203 -201c0 -113 81 -186 166 -204v-190h-302v126h174c-98 39 -181 138 -181 277c0 198 163 322 346 322s346 -124 346 -322c0 -139 -84 -238 -182 -277h174v-126h-302v190c85 18 167 91 167 204c0 130 -100 201 -203 201z" />
    <glyph glyph-name="uni03BC" unicode="&#x3bc;" horiz-adv-x="599" 
d="M53 -190v682h133v-284c0 -55 28 -99 90 -99c59 0 93 40 93 97v286h133v-403c0 -34 3 -71 5 -89h-127c-2 10 -4 34 -4 53c-26 -46 -84 -66 -136 -66c-20 0 -38 4 -54 10v-187h-133z" />
    <glyph glyph-name="pi" unicode="&#x3c0;" horiz-adv-x="648" 
d="M517 378v-225c0 -36 24 -47 49 -47c16 0 21 2 31 3v-104c-14 -6 -36 -13 -70 -13c-96 0 -142 59 -142 143v243h-133v-378h-133v378h-83v114h559v-114h-78z" />
    <glyph glyph-name="uni2007" unicode="&#x2007;" horiz-adv-x="610" 
 />
    <glyph glyph-name="uni2008" unicode="&#x2008;" horiz-adv-x="281" 
 />
    <glyph glyph-name="uni200B" unicode="&#x200b;" horiz-adv-x="0" 
 />
    <glyph glyph-name="endash" unicode="&#x2013;" horiz-adv-x="629" 
d="M547 239h-516l24 115h516z" />
    <glyph glyph-name="emdash" unicode="&#x2014;" horiz-adv-x="1073" 
d="M981 239h-940l24 115h940z" />
    <glyph glyph-name="quoteleft" unicode="&#x2018;" horiz-adv-x="217" 
d="M222 513c0 -46 -37 -83 -86 -83c-51 0 -80 38 -80 85c0 104 92 196 200 201l-13 -62c-46 -5 -94 -39 -106 -84c1 1 10 4 21 4c41 0 64 -29 64 -61z" />
    <glyph glyph-name="quoteright" unicode="&#x2019;" horiz-adv-x="211" 
d="M84 633c0 46 37 83 86 83c51 0 80 -39 80 -85c0 -105 -92 -197 -200 -201l13 61c42 4 95 38 106 84c-1 -1 -10 -4 -21 -4c-41 0 -64 29 -64 62z" />
    <glyph glyph-name="quotesinglbase" unicode="&#x201a;" horiz-adv-x="222" 
d="M-30 58c0 46 37 83 86 83c51 0 80 -38 80 -85c0 -105 -92 -197 -200 -201l13 61c42 5 95 39 106 84c-1 -1 -10 -4 -21 -4c-41 0 -64 29 -64 62z" />
    <glyph glyph-name="quotedblleft" unicode="&#x201c;" horiz-adv-x="413" 
d="M418 516c0 -46 -35 -82 -85 -82s-79 38 -79 84c0 103 91 192 198 198l-13 -61c-45 -5 -93 -39 -105 -82c1 1 10 3 21 3c40 0 63 -28 63 -60zM220 516c0 -46 -36 -82 -85 -82c-50 0 -79 38 -79 84c0 103 91 192 197 198l-13 -61c-44 -5 -92 -39 -104 -82c1 1 10 3 20 3
c41 0 64 -28 64 -60z" />
    <glyph glyph-name="quotedblright" unicode="&#x201d;" horiz-adv-x="409" 
d="M83 633c0 45 37 81 86 81c50 0 78 -38 78 -83c0 -104 -90 -194 -197 -198l13 60c41 5 93 38 105 83c-1 -1 -10 -4 -21 -4c-40 0 -64 28 -64 61zM284 633c0 45 36 81 85 81c50 0 79 -38 79 -83c0 -104 -91 -194 -198 -198l13 60c41 5 93 38 105 83c-1 -1 -10 -4 -21 -4
c-40 0 -63 28 -63 61z" />
    <glyph glyph-name="quotedblbase" unicode="&#x201e;" horiz-adv-x="415" 
d="M-31 57c0 46 37 82 86 82c50 0 78 -38 78 -84c0 -103 -90 -193 -197 -198l13 61c41 4 93 38 105 82c-1 -1 -10 -3 -21 -3c-40 0 -64 28 -64 60zM165 57c0 46 36 82 85 82c50 0 79 -38 79 -84c0 -103 -91 -193 -197 -198l13 61c41 4 93 38 104 82c-1 -1 -10 -3 -20 -3
c-41 0 -64 28 -64 60z" />
    <glyph glyph-name="dagger" unicode="&#x2020;" horiz-adv-x="421" 
d="M226 709h112l-31 -142h123l-22 -104h-123l-64 -300h-111l64 300h-123l22 104h123z" />
    <glyph glyph-name="daggerdbl" unicode="&#x2021;" horiz-adv-x="438" 
d="M194 0h-111l30 144h-122l21 103h123l46 215h-123l22 103h123l30 144h112l-31 -144h123l-22 -103h-123l-46 -215h123l-22 -103h-122z" />
    <glyph glyph-name="bullet" unicode="&#x2022;" horiz-adv-x="543" 
d="M51 299c0 115 94 209 208 209c115 0 208 -94 208 -209c0 -114 -93 -209 -208 -209c-114 0 -208 95 -208 209z" />
    <glyph glyph-name="ellipsis" unicode="&#x2026;" horiz-adv-x="869" 
d="M74 -11c-45 0 -74 33 -74 73c0 47 41 89 91 89c45 0 74 -33 74 -73c0 -48 -41 -89 -91 -89zM371 -11c-45 0 -75 33 -75 73c0 47 41 89 91 89c46 0 75 -33 75 -73c0 -48 -41 -89 -91 -89zM668 -11c-45 0 -74 33 -74 73c0 47 41 89 91 89c45 0 74 -33 74 -73
c0 -48 -41 -89 -91 -89z" />
    <glyph glyph-name="perthousand" unicode="&#x2030;" horiz-adv-x="1022" 
d="M197 428c36 0 73 29 73 80c0 35 -22 59 -58 59c-35 0 -72 -31 -72 -80c0 -34 21 -59 57 -59zM189 334c-86 0 -148 65 -148 147c0 104 86 180 180 180c85 0 148 -66 148 -148c0 -105 -90 -179 -180 -179zM581 86c36 0 73 29 73 80c0 35 -22 59 -58 59
c-35 0 -72 -31 -72 -80c0 -34 21 -59 57 -59zM809 86c36 0 73 29 73 80c0 35 -22 59 -58 59c-35 0 -72 -31 -72 -80c0 -34 21 -59 57 -59zM751 649l-593 -649h-121l593 649h121zM801 -8c-45 0 -83 17 -109 46c-33 -29 -76 -46 -119 -46c-86 0 -148 65 -148 147
c0 104 86 180 180 180c44 0 82 -18 108 -46c33 29 75 46 120 46c85 0 148 -66 148 -148c0 -105 -90 -179 -180 -179z" />
    <glyph glyph-name="guilsinglleft" unicode="&#x2039;" horiz-adv-x="301" 
d="M226 101h-120l-100 197l176 194h133l-185 -202z" />
    <glyph glyph-name="guilsinglright" unicode="&#x203a;" horiz-adv-x="295" 
d="M44 492h120l101 -198l-177 -193h-132l184 202z" />
    <glyph glyph-name="uni2042" unicode="&#x2042;" horiz-adv-x="813" 
d="M516 708l-21 -110l107 33l13 -87l-109 -32l51 -86l-79 -52l-52 91l-84 -92l-64 54l85 90l-96 33l40 82l94 -34l20 110h95zM246 321l-21 -110l107 33l13 -87l-109 -32l51 -86l-79 -52l-52 91l-84 -92l-64 54l85 90l-96 33l40 82l94 -34l20 110h95zM655 321l-21 -110
l107 33l13 -87l-109 -32l51 -86l-79 -52l-52 91l-84 -92l-64 54l85 90l-96 33l40 82l94 -34l20 110h95z" />
    <glyph glyph-name="fraction" unicode="&#x2044;" horiz-adv-x="536" 
d="M625 649l-593 -649h-121l593 649h121z" />
    <glyph glyph-name="uni2051" unicode="&#x2051;" horiz-adv-x="428" 
d="M335 708l-21 -110l107 33l13 -87l-109 -32l51 -86l-79 -52l-52 91l-84 -92l-64 54l85 90l-96 33l40 82l94 -34l20 110h95zM247 324l-21 -110l107 33l13 -87l-109 -32l51 -86l-79 -52l-52 91l-84 -92l-64 54l85 90l-96 33l40 82l94 -34l20 110h95z" />
    <glyph glyph-name="uni2070" unicode="&#x2070;" horiz-adv-x="418" 
d="M51 479c0 101 53 238 190 238c104 0 151 -67 151 -145c0 -108 -55 -239 -189 -239c-90 0 -152 55 -152 146zM151 481c0 -31 12 -62 55 -62c62 0 86 94 86 152c0 33 -13 61 -55 61c-65 0 -86 -104 -86 -151z" />
    <glyph glyph-name="uni2074" unicode="&#x2074;" horiz-adv-x="438" 
d="M53 414l21 104l203 191h111l-46 -217h61l-17 -78h-61c0 -1 -9 -44 -15 -73h-101l16 73h-172zM241 492l25 111l-117 -111h92z" />
    <glyph glyph-name="uni2075" unicode="&#x2075;" horiz-adv-x="397" 
d="M49 460l92 9c0 -37 29 -50 52 -50c27 0 54 18 54 54c0 28 -22 44 -47 44c-20 0 -34 -8 -45 -17l-79 38l76 171h222l-17 -83h-154l-24 -55c15 9 35 13 52 13c71 0 116 -41 116 -105c0 -80 -64 -144 -156 -144c-80 0 -142 47 -142 125z" />
    <glyph glyph-name="uni2076" unicode="&#x2076;" horiz-adv-x="391" 
d="M390 690l-33 -75c-18 9 -42 18 -77 18c-46 0 -95 -24 -115 -69c18 15 48 22 72 22c73 0 115 -45 115 -108c0 -88 -72 -146 -158 -146c-81 0 -144 58 -144 152c0 139 105 231 231 231c45 0 80 -8 109 -25zM207 513c-28 0 -56 -20 -56 -53c0 -28 20 -46 47 -46
c28 0 55 20 55 56c0 25 -18 43 -46 43z" />
    <glyph glyph-name="uni2077" unicode="&#x2077;" horiz-adv-x="361" 
d="M395 709l-18 -83c-47 -33 -154 -116 -205 -285h-106c44 174 182 278 191 284h-183l17 84h304z" />
    <glyph glyph-name="uni2078" unicode="&#x2078;" horiz-adv-x="399" 
d="M197 597c0 -18 15 -34 38 -34c27 0 48 17 48 42c0 15 -11 33 -40 33c-30 0 -46 -20 -46 -41zM157 448c0 -24 22 -38 48 -38c35 0 56 21 56 46c0 18 -14 38 -49 38s-55 -24 -55 -46zM205 332c-100 0 -149 45 -149 104c0 48 40 86 94 97c-28 12 -48 43 -48 72
c0 62 58 111 145 111c89 0 136 -43 136 -99c0 -41 -32 -77 -81 -91c32 -11 57 -43 57 -76c0 -70 -66 -118 -154 -118z" />
    <glyph glyph-name="uni2079" unicode="&#x2079;" horiz-adv-x="411" 
d="M44 362l34 74c20 -12 48 -20 82 -20c43 0 95 23 110 72c-17 -16 -45 -24 -69 -24c-73 0 -119 45 -119 107c0 87 71 145 157 145c82 0 144 -56 144 -149c0 -144 -98 -234 -225 -234c-46 0 -84 11 -114 29zM226 534c29 0 55 23 55 56c0 26 -20 45 -45 45
c-29 0 -55 -22 -55 -57c0 -25 19 -44 45 -44z" />
    <glyph glyph-name="uni2080" unicode="&#x2080;" horiz-adv-x="418" 
d="M16 64c0 101 53 238 190 238c104 0 151 -67 151 -145c0 -108 -55 -239 -189 -239c-90 0 -152 55 -152 146zM116 66c0 -31 12 -62 55 -62c62 0 86 94 86 152c0 33 -13 61 -55 61c-65 0 -86 -104 -86 -151z" />
    <glyph glyph-name="uni2081" unicode="&#x2081;" horiz-adv-x="304" 
d="M148 -104h-102l49 228h-89l14 66c60 1 102 37 117 73h89z" />
    <glyph glyph-name="uni2082" unicode="&#x2082;" horiz-adv-x="383" 
d="M104 72l65 28c31 13 47 29 47 51c0 17 -10 39 -40 39c-36 0 -54 -24 -54 -63l-92 6c0 79 59 138 149 138c93 0 139 -52 139 -112c0 -59 -42 -102 -106 -129l-76 -32c-11 -5 -16 -11 -18 -17h161l-18 -85h-281c3 82 45 142 124 176z" />
    <glyph glyph-name="uni2083" unicode="&#x2083;" horiz-adv-x="428" 
d="M137 60l-26 66l108 56h-165l18 83h280l-19 -95l-102 -53c46 -9 78 -47 78 -97c0 -69 -64 -131 -158 -131c-89 0 -145 56 -145 121c0 4 0 11 1 17l93 5c-1 -4 -1 -7 -1 -8c0 -28 20 -52 54 -52s55 20 55 51c0 27 -22 41 -47 41c-11 0 -18 -2 -24 -4z" />
    <glyph glyph-name="uni2084" unicode="&#x2084;" horiz-adv-x="432" 
d="M-16 -31l21 104l203 191h111l-46 -217h61l-17 -78h-61c0 -1 -9 -44 -15 -73h-101l16 73h-172zM172 47l25 111l-117 -111h92z" />
    <glyph glyph-name="uni2085" unicode="&#x2085;" horiz-adv-x="397" 
d="M-16 15l92 9c0 -37 29 -50 52 -50c27 0 54 18 54 54c0 28 -22 44 -47 44c-20 0 -34 -8 -45 -17l-79 38l76 171h222l-17 -83h-154l-24 -55c15 9 35 13 52 13c71 0 116 -41 116 -105c0 -80 -64 -144 -156 -144c-80 0 -142 47 -142 125z" />
    <glyph glyph-name="uni2086" unicode="&#x2086;" horiz-adv-x="391" 
d="M324 246l-33 -75c-18 9 -42 18 -77 18c-46 0 -95 -24 -115 -69c18 15 48 22 72 22c73 0 115 -45 115 -108c0 -88 -72 -146 -158 -146c-81 0 -144 58 -144 152c0 139 105 231 231 231c45 0 80 -8 109 -25zM141 69c-28 0 -56 -20 -56 -53c0 -28 20 -46 47 -46
c28 0 55 20 55 56c0 25 -18 43 -46 43z" />
    <glyph glyph-name="uni2087" unicode="&#x2087;" horiz-adv-x="361" 
d="M333 263l-18 -83c-47 -33 -154 -116 -205 -285h-106c44 174 182 278 191 284h-183l17 84h304z" />
    <glyph glyph-name="uni2088" unicode="&#x2088;" horiz-adv-x="399" 
d="M135 152c0 -18 15 -34 38 -34c27 0 48 17 48 42c0 15 -11 33 -40 33c-30 0 -46 -20 -46 -41zM95 3c0 -24 22 -38 48 -38c35 0 56 21 56 46c0 18 -14 38 -49 38s-55 -24 -55 -46zM143 -113c-100 0 -149 45 -149 104c0 48 40 86 94 97c-28 12 -48 43 -48 72
c0 62 58 111 145 111c89 0 136 -43 136 -99c0 -41 -32 -77 -81 -91c32 -11 57 -43 57 -76c0 -70 -66 -118 -154 -118z" />
    <glyph glyph-name="uni2089" unicode="&#x2089;" horiz-adv-x="411" 
d="M-6 -82l34 74c20 -12 48 -20 82 -20c43 0 95 23 110 72c-17 -16 -45 -24 -69 -24c-73 0 -119 45 -119 107c0 87 71 145 157 145c82 0 144 -56 144 -149c0 -144 -98 -234 -225 -234c-46 0 -84 11 -114 29zM176 90c29 0 55 23 55 56c0 26 -20 45 -45 45
c-29 0 -55 -22 -55 -57c0 -25 19 -44 45 -44z" />
    <glyph glyph-name="Euro" unicode="&#x20ac;" horiz-adv-x="673" 
d="M49 355l20 92h81c63 140 202 217 339 217c91 0 155 -28 198 -66l-72 -98c-30 28 -81 46 -137 46c-64 0 -138 -30 -184 -99h284l-60 -92h-261c-4 -20 -6 -42 -6 -66h229l-59 -92h-152c29 -63 93 -93 168 -93c43 0 81 10 112 30l40 -103c-45 -28 -105 -46 -170 -46
c-144 0 -258 82 -292 212h-112l20 92h82c0 23 2 45 6 66h-74z" />
    <glyph glyph-name="uni2113" unicode="&#x2113;" horiz-adv-x="486" 
d="M102 135c0 28 6 58 7 66c-24 -5 -48 -8 -73 -10l24 116c22 3 47 8 73 15l44 208c22 100 88 152 166 152c89 0 137 -53 137 -131c0 -111 -96 -238 -242 -308l-8 -37c-3 -15 -5 -30 -5 -37c0 -61 55 -63 78 -63c38 0 61 13 71 17l-24 -111c-10 -7 -36 -21 -83 -21
c-108 0 -165 58 -165 144zM299 524l-29 -133c29 22 52 48 68 79c12 20 21 45 21 71c0 18 -9 27 -24 27s-29 -10 -36 -44z" />
    <glyph glyph-name="trademark" unicode="&#x2122;" horiz-adv-x="876" 
d="M358 625h-102l-59 -281h-94l60 281h-104l17 84h300zM780 344h-90l46 225l-133 -225h-67l-46 225l-48 -225h-91l77 365h122l45 -214l128 214h134z" />
    <glyph glyph-name="Omega" unicode="&#x2126;" horiz-adv-x="790" 
d="M392 595c-103 0 -203 -71 -203 -201c0 -113 81 -186 166 -204v-190h-302v126h174c-98 39 -181 138 -181 277c0 198 163 322 346 322s346 -124 346 -322c0 -139 -84 -238 -182 -277h174v-126h-302v190c85 18 167 91 167 204c0 130 -100 201 -203 201z" />
    <glyph glyph-name="uni2160" unicode="&#x2160;" horiz-adv-x="484" 
d="M102 649h406l-24 -117h-135l-88 -415h134l-24 -117h-405l24 117h134l88 415h-134z" />
    <glyph glyph-name="uni2161" unicode="&#x2161;" horiz-adv-x="772" 
d="M102 649h694l-24 -117h-137l-88 -415h136l-24 -117h-693l24 117h136l88 415h-136zM263 117h147l88 415h-147z" />
    <glyph glyph-name="uni2162" unicode="&#x2162;" horiz-adv-x="1046" 
d="M685 117l87 415h-142l-87 -415h142zM406 117l87 415h-142l-87 -415h142zM-34 0l24 117h137l87 415h-136l24 117h968l-24 -117h-137l-87 -415h135l-24 -117h-967z" />
    <glyph glyph-name="uni2163" unicode="&#x2163;" horiz-adv-x="1029" 
d="M78 532l24 117h961l-24 -117h-108l-222 -415h242l-24 -117h-961l24 117h131l88 415h-131zM346 532l-88 -415h214l-48 415h-78zM563 532l34 -366l189 366h-223z" />
    <glyph glyph-name="uni2164" unicode="&#x2164;" horiz-adv-x="778" 
d="M-14 117h237l-49 415h-102l24 117h716l-24 -117h-106l-222 -415h238l-24 -117h-712zM314 532l34 -366l189 366h-223z" />
    <glyph glyph-name="uni2165" unicode="&#x2165;" horiz-adv-x="1032" 
d="M74 532l24 117h958l-24 -117h-132l-88 -415h132l-24 -117h-958l24 117h241l-49 415h-104zM686 532l-222 -415h211l88 415h-77zM318 532l34 -366l189 366h-223z" />
    <glyph glyph-name="uni2166" unicode="&#x2166;" horiz-adv-x="1312" 
d="M352 166l190 366h-225zM676 117l87 415h-77l-222 -415h212zM951 117l87 415h-138l-87 -415h138zM1199 0h-1237l24 117h240l-47 415h-105l24 117h1237l-24 -117h-136l-87 -415h135z" />
    <glyph glyph-name="uni2167" unicode="&#x2167;" horiz-adv-x="1579" 
d="M78 532l24 117h1501l-24 -117h-134l-88 -415h134l-24 -117h-1501l24 117h239l-47 415h-104zM686 532l-220 -415h210l88 415h-78zM901 532l-88 -415h135l88 415h-135zM1173 532l-88 -415h135l88 415h-135zM321 532l33 -366l188 366h-221z" />
    <glyph glyph-name="uni2168" unicode="&#x2168;" horiz-adv-x="1002" 
d="M78 532l24 117h934l-24 -117h-103l-199 -213l106 -202h108l-24 -117h-934l24 117h131l88 415h-131zM536 321l-110 211h-80l-88 -415h84zM584 532l56 -115l105 115h-161zM606 225l-100 -108h153z" />
    <glyph glyph-name="uni2169" unicode="&#x2169;" horiz-adv-x="752" 
d="M286 321l-110 211h-102l24 117h688l-24 -117h-103l-199 -213l106 -202h108l-24 -117h-688l24 117h107zM333 532l56 -115l106 115h-162zM356 225l-100 -108h153z" />
    <glyph glyph-name="uni216C" unicode="&#x216c;" horiz-adv-x="638" 
d="M102 649h382l-24 -117h-128l-88 -415h177l37 175h131l-61 -292h-562l24 117h117l88 415h-117z" />
    <glyph glyph-name="uni216D" unicode="&#x216d;" horiz-adv-x="724" 
d="M513 226l2 9h134l-49 -235h-134l11 53c-34 -38 -88 -69 -164 -69c-153 0 -277 119 -277 292c0 242 174 388 352 388c103 0 168 -45 194 -90l16 75h134l-53 -250h-134c-2 58 -45 142 -163 142c-97 0 -214 -77 -214 -257c0 -111 74 -177 173 -177c107 0 156 70 172 119z
" />
    <glyph glyph-name="uni216E" unicode="&#x216e;" horiz-adv-x="745" 
d="M-34 0l24 117h124l87 415h-122l23 117h315c167 0 272 -97 272 -259c0 -247 -169 -390 -369 -390h-354zM339 532l-89 -415h62c118 0 239 87 239 262c0 101 -64 153 -156 153h-56z" />
    <glyph glyph-name="uni216F" unicode="&#x216f;" horiz-adv-x="1029" 
d="M315 117l-24 -117h-325l24 117h113l87 415h-112l24 117h296l81 -433l257 433h317l-24 -117h-114l-87 -415h112l-24 -117h-333l24 117h84l70 334l-272 -445h-99l-85 439l-69 -328h79z" />
    <glyph glyph-name="arrowleft" unicode="&#x2190;" horiz-adv-x="1062" 
d="M254 72l-263 225l263 225v-168h747v-115h-747v-167z" />
    <glyph glyph-name="arrowup" unicode="&#x2191;" horiz-adv-x="486" 
d="M262 800l229 -267h-172v-680h-114v680h-174z" />
    <glyph glyph-name="arrowright" unicode="&#x2192;" horiz-adv-x="1085" 
d="M1050 297l-294 -235v177h-731v115h731v179z" />
    <glyph glyph-name="arrowdown" unicode="&#x2193;" horiz-adv-x="478" 
d="M460 117l-234 -269l-235 269h178v677h114v-677h177z" />
    <glyph glyph-name="uni2196" unicode="&#x2196;" horiz-adv-x="876" 
d="M64 708h332l-125 -126l514 -513l-81 -81l-514 513l-126 -127v334z" />
    <glyph glyph-name="uni2197" unicode="&#x2197;" horiz-adv-x="757" 
d="M334 708h332v-334l-127 127l-513 -513l-81 81l513 513z" />
    <glyph glyph-name="uni2198" unicode="&#x2198;" horiz-adv-x="858" 
d="M767 1h-332l124 125l-513 514l81 81l513 -514l127 128v-334z" />
    <glyph glyph-name="uni2199" unicode="&#x2199;" horiz-adv-x="748" 
d="M368 1h-332v334l126 -128l514 514l81 -81l-514 -514z" />
    <glyph glyph-name="uni21A9" unicode="&#x21a9;" horiz-adv-x="861" 
d="M241 50l-263 224l263 226v-169h361c73 0 124 45 124 103c0 63 -51 103 -127 103h-195v115h201c142 0 239 -94 239 -218s-96 -219 -239 -219h-364v-165z" />
    <glyph glyph-name="uni21B0" unicode="&#x21b0;" horiz-adv-x="804" 
d="M301 274l-263 225l263 226v-168h422v-557h-114v442h-308v-168z" />
    <glyph glyph-name="uni21B1" unicode="&#x21b1;" horiz-adv-x="749" 
d="M150 0h-115v557h442v168l263 -226l-263 -225v168h-327v-442z" />
    <glyph glyph-name="uni21B2" unicode="&#x21b2;" horiz-adv-x="851" 
d="M73 210l263 225v-168h327v442h115v-557h-442v-168z" />
    <glyph glyph-name="uni21B3" unicode="&#x21b3;" horiz-adv-x="851" 
d="M515 435l263 -225l-263 -226v168h-442v557h115v-442h327v168z" />
    <glyph glyph-name="uni21B4" unicode="&#x21b4;" horiz-adv-x="799" 
d="M61 594v115h565v-467h168l-223 -257l-225 257h165v352h-450z" />
    <glyph glyph-name="uni21C6" unicode="&#x21c6;" horiz-adv-x="1167" 
d="M1112 162l-263 -224v167h-757v115h757v168zM327 332l-263 224l263 226v-170h756v-115h-756v-165z" />
    <glyph glyph-name="partialdiff" unicode="&#x2202;" horiz-adv-x="662" 
d="M277 600c-29 0 -83 -5 -145 -34l-46 106c68 38 143 49 199 49c127 0 321 -62 321 -373c0 -207 -93 -364 -290 -364c-131 0 -255 82 -255 244c0 148 124 231 244 231c92 0 138 -30 161 -56c-7 142 -90 197 -189 197zM335 346c-94 0 -139 -55 -139 -124
c0 -73 63 -115 125 -115c111 0 147 105 148 183c-30 35 -76 56 -134 56z" />
    <glyph glyph-name="Delta" unicode="&#x2206;" horiz-adv-x="668" 
d="M466 128l-155 431l-154 -431h309zM-34 0l270 709h150l271 -709h-691z" />
    <glyph glyph-name="product" unicode="&#x220f;" horiz-adv-x="686" 
d="M602 0h-138v582h-248v-582h-138v709h524v-709z" />
    <glyph glyph-name="summation" unicode="&#x2211;" horiz-adv-x="566" 
d="M31 0v125l256 229l-256 230v125h514v-128h-325l252 -227l-261 -226h334v-128h-514z" />
    <glyph glyph-name="minus" unicode="&#x2212;" horiz-adv-x="567" 
d="M38 241v109h475v-109h-475z" />
    <glyph glyph-name="uni2215" unicode="&#x2215;" horiz-adv-x="416" 
d="M381 658h124l-466 -668h-123z" />
    <glyph glyph-name="uni2219" unicode="&#x2219;" horiz-adv-x="283" 
d="M46 301c0 48 42 93 94 93c46 0 77 -34 77 -75c0 -54 -43 -94 -93 -94c-47 0 -78 34 -78 76z" />
    <glyph glyph-name="radical" unicode="&#x221a;" horiz-adv-x="679" 
d="M735 768h-131l-258 -768h-118l-190 537h130l120 -354l228 696h219v-111z" />
    <glyph glyph-name="infinity" unicode="&#x221e;" horiz-adv-x="829" 
d="M36 290c0 106 81 186 192 186c66 0 128 -35 183 -99c57 62 116 99 180 99c111 0 192 -80 192 -186s-81 -185 -192 -185c-68 0 -126 32 -183 97c-58 -63 -113 -97 -180 -97c-111 0 -192 79 -192 185zM230 362c-46 0 -75 -32 -75 -73s29 -72 75 -72c39 0 74 30 107 70
c-35 42 -67 75 -107 75zM589 217c46 0 75 31 75 72s-29 73 -75 73c-40 0 -72 -32 -107 -72c34 -42 68 -73 107 -73z" />
    <glyph glyph-name="integral" unicode="&#x222b;" horiz-adv-x="332" 
d="M82 -17v542c0 113 70 185 185 185h51v-118h-45c-35 0 -58 -23 -58 -65v-542c0 -113 -69 -185 -183 -185h-54v117h46c34 0 58 24 58 66z" />
    <glyph glyph-name="approxequal" unicode="&#x2248;" horiz-adv-x="664" 
d="M519 463l70 -59c-37 -65 -96 -100 -163 -100c-34 0 -71 10 -107 30l-47 26c-18 10 -37 15 -54 15c-33 0 -63 -17 -87 -48l-72 59c37 65 96 101 161 101c35 0 71 -10 108 -30l48 -26c19 -10 38 -16 57 -16c32 0 63 16 86 48zM519 261l70 -58c-37 -65 -96 -100 -163 -100
c-34 0 -71 10 -107 30l-47 26c-18 10 -37 14 -54 14c-32 0 -63 -16 -87 -47l-72 59c37 65 96 101 162 101c35 0 70 -10 107 -30l48 -26c19 -11 38 -16 57 -16c32 0 63 15 86 47z" />
    <glyph glyph-name="notequal" unicode="&#x2260;" horiz-adv-x="619" 
d="M59 341v107h290l60 92h120l-60 -92h75v-107h-145l-59 -91h204v-108h-275l-63 -97h-120l63 97h-90v108h161l59 91h-220z" />
    <glyph glyph-name="lessequal" unicode="&#x2264;" horiz-adv-x="576" 
d="M65 44v109h430v-109h-430zM65 316v108l430 136v-110l-279 -78l279 -79v-112z" />
    <glyph glyph-name="greaterequal" unicode="&#x2265;" horiz-adv-x="576" 
d="M495 153v-109h-430v109h430zM495 424v-108l-430 -135v110l279 78l-279 79v112z" />
    <glyph glyph-name="dotmath" unicode="&#x22c5;" horiz-adv-x="283" 
d="M46 301c0 48 42 93 94 93c46 0 77 -34 77 -75c0 -54 -43 -94 -93 -94c-47 0 -78 34 -78 76z" />
    <glyph glyph-name="uni24C5" unicode="&#x24c5;" horiz-adv-x="812" 
d="M31 354c0 204 164 371 368 371s370 -167 370 -371c0 -203 -166 -370 -370 -370s-368 167 -368 370zM116 354c0 -163 124 -291 283 -291s283 128 283 291c0 164 -124 292 -283 292s-283 -128 -283 -292zM385 370h42c41 0 72 24 72 65c0 27 -17 42 -49 42h-42zM441 293h-73
l-29 -138h-93l85 399h145c70 0 118 -52 118 -113c0 -81 -64 -148 -153 -148z" />
    <glyph glyph-name="filledbox" unicode="&#x25a0;" horiz-adv-x="885" 
d="M88 0v709h709v-709h-709z" />
    <glyph glyph-name="H22073" unicode="&#x25a1;" horiz-adv-x="885" 
d="M797 0h-709v709h709v-709zM202 597v-486h478v486h-478z" />
    <glyph glyph-name="triagup" unicode="&#x25b2;" horiz-adv-x="824" 
d="M352 725l417 -725h-838z" />
    <glyph glyph-name="uni25B3" unicode="&#x25b3;" horiz-adv-x="824" 
d="M-69 0l419 725l419 -725h-838zM350 496l-222 -384h444z" />
    <glyph glyph-name="lozenge" unicode="&#x25ca;" horiz-adv-x="611" 
d="M306 132l128 222l-128 223l-129 -223zM378 0h-145l-207 354l207 355h145l207 -355z" />
    <glyph glyph-name="circle" unicode="&#x25cb;" horiz-adv-x="819" 
d="M779 354c0 -205 -165 -370 -370 -370s-371 165 -371 370s166 371 371 371s370 -166 370 -371zM663 354c0 142 -114 258 -254 258c-142 0 -257 -116 -257 -258s115 -258 257 -258c140 0 254 116 254 258z" />
    <glyph glyph-name="H18533" unicode="&#x25cf;" horiz-adv-x="819" 
d="M38 354c0 205 165 371 370 371s371 -166 371 -371s-166 -370 -371 -370s-370 165 -370 370z" />
    <glyph glyph-name="uni262E" unicode="&#x262e;" horiz-adv-x="811" 
d="M771 354c0 -204 -165 -370 -369 -370s-368 166 -368 370c0 205 164 371 368 371s369 -166 369 -371zM658 354c0 127 -86 231 -202 256v-195l185 -156c11 30 17 61 17 95zM145 354c0 -33 6 -64 16 -93l183 154v194c-114 -26 -199 -130 -199 -255zM456 98
c47 10 90 33 124 67l-124 108v-175zM222 167c33 -34 75 -58 122 -69v174z" />
    <glyph glyph-name="uni2713" unicode="&#x2713;" horiz-adv-x="845" 
d="M899 645l-617 -661l-293 324l83 78l214 -233l531 573z" />
    <glyph glyph-name="uni2715" unicode="&#x2715;" horiz-adv-x="787" 
d="M115 -5l-80 80l277 280l-277 277l80 80l276 -277l275 277l80 -80l-274 -277l280 -280l-80 -80l-280 279z" />
    <glyph glyph-name="uni2780" unicode="&#x2780;" horiz-adv-x="812" 
d="M34 354c0 204 164 371 368 371s370 -167 370 -371c0 -203 -166 -370 -370 -370s-368 167 -368 370zM119 354c0 -163 124 -291 283 -291s283 128 283 291c0 164 -124 292 -283 292s-283 -128 -283 -292zM469 172h-102v223h-92v67c63 0 96 41 103 77h91v-367z" />
    <glyph glyph-name="uni2781" unicode="&#x2781;" horiz-adv-x="812" 
d="M402 725c204 0 370 -167 370 -371c0 -203 -166 -370 -370 -370s-368 167 -368 370c0 204 164 371 368 371zM119 354c0 -163 124 -291 283 -291s283 128 283 291c0 164 -124 292 -283 292s-283 -128 -283 -292zM343 351l60 35c25 15 39 32 39 51c0 18 -13 39 -44 39
c-30 0 -48 -18 -49 -45c0 -6 1 -16 3 -25h-92c-2 9 -3 17 -3 28c0 66 49 124 143 124c90 0 142 -56 142 -122c0 -48 -29 -82 -79 -112l-70 -42c-6 -4 -12 -9 -12 -15h164v-85h-291v12c0 65 23 118 89 157z" />
    <glyph glyph-name="uni2782" unicode="&#x2782;" horiz-adv-x="812" 
d="M34 354c0 204 164 371 368 371s370 -167 370 -371c0 -203 -166 -370 -370 -370s-368 167 -368 370zM119 354c0 -163 124 -291 283 -291s283 128 283 291c0 164 -124 292 -283 292s-283 -128 -283 -292zM245 275l91 21c3 -30 28 -53 61 -53c34 0 55 19 55 44
c0 32 -26 45 -54 45c-7 0 -20 -1 -32 -6l-33 68l87 59h-161v83h284v-82l-89 -61c58 -8 100 -45 100 -108c0 -67 -59 -125 -156 -125c-91 0 -145 56 -153 115z" />
    <glyph glyph-name="uni2783" unicode="&#x2783;" horiz-adv-x="812" 
d="M34 354c0 204 164 371 368 371s370 -167 370 -371c0 -203 -166 -370 -370 -370s-368 167 -368 370zM119 354c0 -163 124 -291 283 -291s283 128 283 291c0 164 -124 292 -283 292s-283 -128 -283 -292zM223 249v93l169 203h109v-217h61v-79h-61v-71h-101v71h-177z
M400 328v106l-88 -106h88z" />
    <glyph glyph-name="uni2784" unicode="&#x2784;" horiz-adv-x="812" 
d="M34 354c0 204 164 371 368 371s370 -167 370 -371c0 -203 -166 -370 -370 -370s-368 167 -368 370zM119 354c0 -163 124 -291 283 -291s283 128 283 291c0 164 -124 292 -283 292s-283 -128 -283 -292zM243 269l89 23c4 -31 30 -50 61 -50s53 18 53 48
c0 35 -23 51 -56 51c-21 0 -40 -9 -52 -22l-83 25l46 189h222v-83h-162l-15 -63c17 15 45 23 71 23c78 0 129 -45 129 -119c0 -72 -55 -132 -153 -132c-81 0 -141 50 -150 110z" />
    <glyph glyph-name="uni2785" unicode="&#x2785;" horiz-adv-x="812" 
d="M34 354c0 204 164 371 368 371s370 -167 370 -371c0 -203 -166 -370 -370 -370s-368 167 -368 370zM119 354c0 -163 124 -291 283 -291s283 128 283 291c0 164 -124 292 -283 292s-283 -128 -283 -292zM534 531l-19 -77c-18 7 -41 12 -65 12c-52 0 -102 -24 -117 -83
c20 21 52 33 85 33c74 0 130 -41 130 -119s-65 -133 -156 -133c-87 0 -160 61 -160 169c0 134 93 214 212 214c31 0 63 -6 90 -16zM338 294c0 -30 25 -49 54 -49s54 19 54 49c0 31 -25 50 -54 50s-54 -19 -54 -50z" />
    <glyph glyph-name="uni2786" unicode="&#x2786;" horiz-adv-x="812" 
d="M34 354c0 204 164 371 368 371s370 -167 370 -371c0 -203 -166 -370 -370 -370s-368 167 -368 370zM119 354c0 -163 124 -291 283 -291s283 128 283 291c0 164 -124 292 -283 292s-283 -128 -283 -292zM554 531v-85c-34 -27 -126 -110 -142 -283h-107
c13 183 127 284 127 284h-185v84h307z" />
    <glyph glyph-name="uni2787" unicode="&#x2787;" horiz-adv-x="812" 
d="M34 354c0 204 164 371 368 371s370 -167 370 -371c0 -203 -166 -370 -370 -370s-368 167 -368 370zM119 354c0 -163 124 -291 283 -291s283 128 283 291c0 164 -124 292 -283 292s-283 -128 -283 -292zM402 394c30 0 46 18 46 39c0 17 -15 36 -46 36
c-30 0 -45 -19 -45 -36c0 -21 16 -39 45 -39zM402 244c39 0 55 20 55 43c0 20 -17 40 -55 40c-37 0 -55 -20 -55 -40c0 -23 17 -43 55 -43zM402 165c-98 0 -155 45 -155 110c0 40 30 74 73 87c-40 13 -62 47 -62 82c0 59 53 104 144 104c92 0 145 -45 145 -104
c0 -35 -22 -69 -62 -82c41 -13 73 -46 73 -85c0 -66 -55 -112 -156 -112z" />
    <glyph glyph-name="uni2788" unicode="&#x2788;" horiz-adv-x="812" 
d="M34 354c0 204 164 371 368 371s370 -167 370 -371c0 -203 -166 -370 -370 -370s-368 167 -368 370zM119 354c0 -163 124 -291 283 -291s283 128 283 291c0 164 -124 292 -283 292s-283 -128 -283 -292zM270 179l17 79c18 -8 41 -12 65 -12c53 0 104 22 117 82
c-20 -20 -53 -32 -87 -32c-68 0 -131 42 -131 119c0 78 62 133 156 133c88 0 159 -62 159 -170c0 -137 -89 -215 -206 -215c-30 0 -63 6 -90 16zM458 417c0 30 -24 50 -54 50c-29 0 -53 -20 -53 -50s24 -50 53 -50c30 0 54 20 54 50z" />
    <glyph glyph-name="uniE000" unicode="&#xe000;" horiz-adv-x="745" 
d="M222 -15l-223 257h168v467h565v-115h-450v-352h165z" />
    <glyph glyph-name="uni21B5" unicode="&#xe001;" horiz-adv-x="1110" 
d="M251 104l-215 250h152c1 204 167 371 371 371c63 0 122 -16 174 -43l-53 -102c-36 19 -77 30 -120 30c-142 0 -256 -115 -256 -256h161zM926 354c0 -205 -165 -370 -370 -370c-62 0 -121 16 -173 43l52 102c37 -19 77 -31 121 -31c141 0 254 115 254 256h-159l214 251
l215 -251h-154z" />
    <glyph glyph-name="uniE002" unicode="&#xe002;" horiz-adv-x="956" 
d="M506 354l214 251l215 -251h-151c0 -205 -165 -370 -370 -370c-204 0 -370 165 -370 370s166 371 370 371c57 0 110 -13 158 -35l-46 -106c-34 17 -71 26 -111 26c-142 0 -256 -115 -256 -256s114 -257 256 -257c140 0 253 116 253 257h-162z" />
    <glyph glyph-name="uniFB00" unicode="&#xfb00;" horiz-adv-x="680" 
d="M159 0h-134l80 379h-83l24 113h84l15 74c27 126 108 165 194 165c35 0 68 -9 81 -17l-23 -109c0 -1 -14 9 -43 9c-36 0 -69 -17 -79 -62l-12 -60h184l15 74c27 126 108 165 195 165c34 0 67 -9 80 -17l-23 -109c0 -1 -14 9 -43 9c-36 0 -69 -17 -79 -62l-12 -60h105
l-25 -113h-104l-80 -379h-134l80 379h-183z" />
    <glyph glyph-name="fi" unicode="&#xfb01;" horiz-adv-x="627" 
d="M239 379l-80 -379h-134l80 379h-83l24 113h84l17 80c26 120 106 159 192 159c35 0 68 -9 81 -17l-23 -109c0 -1 -16 9 -45 9c-40 0 -68 -22 -78 -68l-11 -54h321l-105 -492h-132l81 379h-189zM469 648c0 49 41 89 90 89c44 0 74 -32 74 -72c0 -52 -44 -89 -91 -89
c-42 0 -73 31 -73 72z" />
    <glyph glyph-name="fl" unicode="&#xfb02;" horiz-adv-x="626" 
d="M239 379l-80 -379h-134l80 379h-83l24 113h84l17 80c26 120 106 159 192 159c35 0 68 -9 81 -17l-23 -109c0 -1 -16 9 -45 9c-40 0 -68 -22 -78 -68l-11 -54h188l49 232h133l-154 -724h-132l80 379h-188z" />
    <glyph glyph-name="uniFB03" unicode="&#xfb03;" horiz-adv-x="940" 
d="M782 648c0 49 41 89 90 89c44 0 74 -32 74 -72c0 -52 -44 -89 -91 -89c-42 0 -73 31 -73 72zM159 0h-134l80 379h-83l24 113h84l15 74c27 126 108 165 194 165c35 0 68 -9 81 -17l-23 -109c0 -1 -14 9 -43 9c-36 0 -69 -17 -79 -62l-12 -60h184l15 74
c27 126 108 165 195 165c34 0 67 -9 80 -17l-23 -109c0 -1 -14 9 -43 9c-36 0 -69 -17 -79 -62l-12 -60h317l-105 -492h-132l81 379h-185l-80 -379h-134l80 379h-183z" />
    <glyph glyph-name="uniFB04" unicode="&#xfb04;" horiz-adv-x="946" 
d="M159 0h-134l80 379h-83l24 113h84l15 74c27 126 108 165 194 165c35 0 68 -9 81 -17l-23 -109c0 -1 -14 9 -43 9c-36 0 -69 -17 -79 -62l-12 -60h184l15 74c27 126 108 165 195 165c34 0 67 -9 80 -17l-23 -109c0 -1 -14 9 -43 9c-36 0 -69 -17 -79 -62l-12 -60h191
l49 232h133l-154 -724h-132l80 379h-191l-80 -379h-134l80 379h-183z" />
    <glyph glyph-name="uniFEFF" unicode="&#xfeff;" horiz-adv-x="0" 
 />
    <glyph glyph-name="zero.numr" horiz-adv-x="418" 
d="M46 419c0 101 53 238 190 238c104 0 151 -67 151 -145c0 -108 -55 -239 -189 -239c-90 0 -152 55 -152 146zM146 421c0 -31 12 -62 55 -62c62 0 86 94 86 152c0 33 -13 61 -55 61c-65 0 -86 -104 -86 -151z" />
    <glyph glyph-name="one.numr" horiz-adv-x="304" 
d="M190 282h-102l49 228h-89l14 66c60 1 102 37 117 73h89z" />
    <glyph glyph-name="two.numr" horiz-adv-x="390" 
d="M160 457l65 28c31 13 47 29 47 51c0 17 -10 39 -40 39c-36 0 -54 -24 -54 -63l-92 6c0 79 59 138 149 138c93 0 139 -52 139 -112c0 -59 -42 -102 -106 -129l-76 -32c-11 -5 -16 -11 -18 -17h161l-18 -85h-281c3 82 45 142 124 176z" />
    <glyph glyph-name="three.numr" horiz-adv-x="428" 
d="M187 444l-26 66l108 56h-165l18 83h280l-19 -95l-102 -53c46 -9 78 -47 78 -97c0 -69 -64 -131 -158 -131c-89 0 -145 56 -145 121c0 4 0 11 1 17l93 5c-1 -4 -1 -7 -1 -8c0 -28 20 -52 54 -52s55 20 55 51c0 27 -22 41 -47 41c-11 0 -18 -2 -24 -4z" />
    <glyph glyph-name="four.numr" horiz-adv-x="432" 
d="M46 354l21 104l203 191h111l-46 -217h61l-17 -78h-61c0 -1 -9 -44 -15 -73h-101l16 73h-172zM234 432l25 111l-117 -111h92z" />
    <glyph glyph-name="five.numr" horiz-adv-x="397" 
d="M46 400l92 9c0 -37 29 -50 52 -50c27 0 54 18 54 54c0 28 -22 44 -47 44c-20 0 -34 -8 -45 -17l-79 38l76 171h222l-17 -83h-154l-24 -55c15 9 35 13 52 13c71 0 116 -41 116 -105c0 -80 -64 -144 -156 -144c-80 0 -142 47 -142 125z" />
    <glyph glyph-name="six.numr" horiz-adv-x="392" 
d="M386 630l-33 -75c-18 9 -42 18 -77 18c-46 0 -95 -24 -115 -69c18 15 48 22 72 22c73 0 115 -45 115 -108c0 -88 -72 -146 -158 -146c-81 0 -144 58 -144 152c0 139 105 231 231 231c45 0 80 -8 109 -25zM203 453c-28 0 -56 -20 -56 -53c0 -28 20 -46 47 -46
c28 0 55 20 55 56c0 25 -18 43 -46 43z" />
    <glyph glyph-name="seven.numr" horiz-adv-x="361" 
d="M387 649l-18 -83c-47 -33 -154 -116 -205 -285h-106c44 174 182 278 191 284h-183l17 84h304z" />
    <glyph glyph-name="eight.numr" horiz-adv-x="399" 
d="M188 537c0 -18 15 -34 38 -34c27 0 48 17 48 42c0 15 -11 33 -40 33c-30 0 -46 -20 -46 -41zM148 388c0 -24 22 -38 48 -38c35 0 56 21 56 46c0 18 -14 38 -49 38s-55 -24 -55 -46zM196 272c-100 0 -149 45 -149 104c0 48 40 86 94 97c-28 12 -48 43 -48 72
c0 62 58 111 145 111c89 0 136 -43 136 -99c0 -41 -32 -77 -81 -91c32 -11 57 -43 57 -76c0 -70 -66 -118 -154 -118z" />
    <glyph glyph-name="nine.numr" horiz-adv-x="411" 
d="M41 301l34 74c20 -12 48 -20 82 -20c43 0 95 23 110 72c-17 -16 -45 -24 -69 -24c-73 0 -119 45 -119 107c0 87 71 145 157 145c82 0 144 -56 144 -149c0 -144 -98 -234 -225 -234c-46 0 -84 11 -114 29zM223 473c29 0 55 23 55 56c0 26 -20 45 -45 45
c-29 0 -55 -22 -55 -57c0 -25 19 -44 45 -44z" />
    <glyph glyph-name="zero.dnom" horiz-adv-x="418" 
d="M26 137c0 101 53 238 190 238c104 0 151 -67 151 -145c0 -108 -55 -239 -189 -239c-90 0 -152 55 -152 146zM126 139c0 -31 12 -62 55 -62c62 0 86 94 86 152c0 33 -13 61 -55 61c-65 0 -86 -104 -86 -151z" />
    <glyph glyph-name="one.dnom" horiz-adv-x="304" 
d="M160 0h-102l49 228h-89l14 66c60 1 102 37 117 73h89z" />
    <glyph glyph-name="two.dnom" horiz-adv-x="383" 
d="M120 176l65 28c31 13 47 29 47 51c0 17 -10 39 -40 39c-36 0 -54 -24 -54 -63l-92 6c0 79 59 138 149 138c93 0 139 -52 139 -112c0 -59 -42 -102 -106 -129l-76 -32c-11 -5 -16 -11 -18 -17h161l-18 -85h-281c3 82 45 142 124 176z" />
    <glyph glyph-name="three.dnom" horiz-adv-x="428" 
d="M147 163l-26 66l108 56h-165l18 83h280l-19 -95l-102 -53c46 -9 78 -47 78 -97c0 -69 -64 -131 -158 -131c-89 0 -145 56 -145 121c0 4 0 11 1 17l93 5c-1 -4 -1 -7 -1 -8c0 -28 20 -52 54 -52s55 20 55 51c0 27 -22 41 -47 41c-11 0 -18 -2 -24 -4z" />
    <glyph glyph-name="four.dnom" horiz-adv-x="432" 
d="M5 73l21 104l203 191h111l-46 -217h61l-17 -78h-61c0 -1 -9 -44 -15 -73h-101l16 73h-172zM193 151l25 111l-117 -111h92z" />
    <glyph glyph-name="five.dnom" horiz-adv-x="397" 
d="M6 118l92 9c0 -37 29 -50 52 -50c27 0 54 18 54 54c0 28 -22 44 -47 44c-20 0 -34 -8 -45 -17l-79 38l76 171h222l-17 -83h-154l-24 -55c15 9 35 13 52 13c71 0 116 -41 116 -105c0 -80 -64 -144 -156 -144c-80 0 -142 47 -142 125z" />
    <glyph glyph-name="six.dnom" horiz-adv-x="391" 
d="M346 350l-33 -75c-18 9 -42 18 -77 18c-46 0 -95 -24 -115 -69c18 15 48 22 72 22c73 0 115 -45 115 -108c0 -88 -72 -146 -158 -146c-81 0 -144 58 -144 152c0 139 105 231 231 231c45 0 80 -8 109 -25zM163 173c-28 0 -56 -20 -56 -53c0 -28 20 -46 47 -46
c28 0 55 20 55 56c0 25 -18 43 -46 43z" />
    <glyph glyph-name="seven.dnom" horiz-adv-x="361" 
d="M344 368l-18 -83c-47 -33 -154 -116 -205 -285h-106c44 174 182 278 191 284h-183l17 84h304z" />
    <glyph glyph-name="eight.dnom" horiz-adv-x="399" 
d="M147 256c0 -18 15 -34 38 -34c27 0 48 17 48 42c0 15 -11 33 -40 33c-30 0 -46 -20 -46 -41zM107 107c0 -24 22 -38 48 -38c35 0 56 21 56 46c0 18 -14 38 -49 38s-55 -24 -55 -46zM155 -9c-100 0 -149 45 -149 104c0 48 40 86 94 97c-28 12 -48 43 -48 72
c0 62 58 111 145 111c89 0 136 -43 136 -99c0 -41 -32 -77 -81 -91c32 -11 57 -43 57 -76c0 -70 -66 -118 -154 -118z" />
    <glyph glyph-name="nine.dnom" horiz-adv-x="411" 
d="M6 21l34 74c20 -12 48 -20 82 -20c43 0 95 23 110 72c-17 -16 -45 -24 -69 -24c-73 0 -119 45 -119 107c0 87 71 145 157 145c82 0 144 -56 144 -149c0 -144 -98 -234 -225 -234c-46 0 -84 11 -114 29zM188 193c29 0 55 23 55 56c0 26 -20 45 -45 45
c-29 0 -55 -22 -55 -57c0 -25 19 -44 45 -44z" />
    <glyph glyph-name="space.frac" horiz-adv-x="52" 
 />
    <glyph glyph-name="a.ordn" horiz-adv-x="455" 
d="M234 565c-55 0 -83 -57 -83 -109c0 -46 26 -72 63 -72c41 0 82 38 82 112c0 45 -25 69 -62 69zM332 648h99l-59 -274c-4 -16 -7 -36 -7 -56c0 -6 0 -8 1 -16h-93c-1 6 -1 13 -1 15c0 7 1 17 3 26c-15 -21 -43 -47 -91 -47c-84 0 -135 69 -135 155c0 120 78 206 176 206
c66 0 91 -31 98 -46z" />
    <glyph glyph-name="b.ordn" horiz-adv-x="489" 
d="M175 302h-98l106 507h101l-39 -188c17 19 50 34 89 34c89 0 135 -64 135 -144c0 -127 -79 -217 -181 -217c-56 0 -92 30 -103 53zM299 567c-51 0 -88 -51 -88 -109c0 -48 30 -73 67 -73c40 0 89 36 89 109c0 49 -29 73 -68 73z" />
    <glyph glyph-name="c.ordn" horiz-adv-x="420" 
d="M399 541l-92 -26c-5 26 -26 51 -67 51c-42 0 -90 -36 -90 -109c0 -45 30 -72 72 -72c36 0 60 21 72 46l84 -32c-24 -56 -79 -108 -163 -108c-6 0 -12 1 -17 1c-88 7 -149 74 -149 163c0 125 95 204 198 204c94 0 142 -60 152 -118z" />
    <glyph glyph-name="d.ordn" horiz-adv-x="449" 
d="M234 565c-55 0 -83 -57 -83 -109c0 -46 26 -72 63 -72c41 0 82 38 82 112c0 45 -25 69 -62 69zM275 343c-15 -21 -43 -47 -91 -47c-84 0 -135 69 -135 155c0 120 78 206 176 206c59 0 86 -25 96 -42l41 194h102l-92 -435c-4 -16 -7 -36 -7 -56c0 -6 0 -8 1 -16h-93
c-1 6 -1 13 -1 15c0 7 1 17 3 26z" />
    <glyph glyph-name="e.ordn" horiz-adv-x="405" 
d="M145 516h141c1 1 1 6 1 7c0 23 -16 55 -62 55c-44 0 -69 -27 -80 -62zM371 449l-236 -1c0 -39 26 -72 74 -72c33 0 58 18 69 41l79 -37c-22 -45 -72 -88 -156 -88c-86 0 -160 64 -160 160c0 128 93 207 185 207c98 0 155 -62 155 -147c0 -18 -3 -43 -10 -63z" />
    <glyph glyph-name="f.ordn" horiz-adv-x="330" 
d="M317 562h-71l-56 -260h-102l55 260h-58l18 86h59l11 52c17 82 74 114 140 114c22 0 48 -5 61 -12l-19 -84c-9 5 -20 7 -30 7c-31 0 -49 -16 -55 -46l-6 -31h72z" />
    <glyph glyph-name="g.ordn" horiz-adv-x="465" 
d="M331 502c0 38 -26 64 -63 64c-47 0 -82 -39 -82 -94c0 -39 25 -64 64 -64c43 0 81 35 81 94zM42 292l89 17c0 -34 24 -62 70 -62c50 0 82 28 96 86l5 22c-13 -16 -40 -33 -78 -33c-87 0 -140 62 -140 144c0 105 74 190 174 190c57 0 89 -24 100 -45l9 37h99l-67 -317
c-20 -95 -84 -172 -195 -172c-112 0 -162 70 -162 133z" />
    <glyph glyph-name="h.ordn" horiz-adv-x="453" 
d="M373 302h-102l43 198c1 6 2 12 2 17c0 30 -18 50 -50 50c-37 0 -58 -28 -66 -64l-44 -201h-101l107 507h102l-40 -189c22 26 58 38 89 38c73 0 108 -48 108 -111c0 -9 -1 -25 -4 -38z" />
    <glyph glyph-name="i.ordn" horiz-adv-x="255" 
d="M146 753c0 36 30 66 67 66c32 0 54 -24 54 -53c0 -40 -32 -66 -67 -66c-31 0 -54 23 -54 53zM162 302h-102l74 346h102z" />
    <glyph glyph-name="j.ordn" horiz-adv-x="265" 
d="M84 285l77 363h102l-82 -386c-15 -69 -60 -103 -120 -103c-35 0 -59 11 -68 17l17 80c12 -6 24 -7 33 -7c20 0 37 8 41 36zM174 753c0 36 29 66 66 66c33 0 55 -24 55 -53c0 -40 -32 -66 -67 -66c-32 0 -54 23 -54 53z" />
    <glyph glyph-name="k.ordn" horiz-adv-x="439" 
d="M281 302l-61 130l-47 -40l-19 -90h-101l107 507h102l-58 -273l127 112h140l-173 -148l97 -198h-114z" />
    <glyph glyph-name="l.ordn" horiz-adv-x="246" 
d="M157 302h-102l107 507h102z" />
    <glyph glyph-name="m.ordn" horiz-adv-x="672" 
d="M586 302h-101l43 199c1 6 2 12 2 18c0 28 -17 48 -50 48c-31 0 -53 -23 -62 -63l-44 -202h-103l43 199c1 6 2 12 2 18c0 28 -17 48 -50 48c-31 0 -54 -23 -63 -63l-44 -202h-101l60 288c7 33 7 53 7 58h99c0 -6 0 -20 -2 -32c22 28 58 42 93 42c46 0 77 -21 93 -51
c36 45 86 51 116 51c67 0 111 -48 111 -113c0 -11 -1 -22 -4 -34z" />
    <glyph glyph-name="n.ordn" horiz-adv-x="453" 
d="M376 302h-102l43 198c1 6 2 12 2 17c0 30 -18 50 -50 50c-37 0 -58 -28 -66 -64l-44 -201h-101l60 288c7 33 7 53 7 58h99c0 -4 0 -19 -2 -33c22 30 61 43 94 43c72 0 108 -48 108 -111c0 -12 -1 -25 -4 -38z" />
    <glyph glyph-name="o.ordn" horiz-adv-x="430" 
d="M237 567c-51 0 -86 -51 -86 -109c0 -46 28 -73 65 -73c40 0 87 34 87 108c0 48 -26 73 -66 74zM405 497c0 -110 -80 -205 -196 -205c-95 0 -160 70 -160 162c0 123 90 205 196 205c98 0 160 -70 160 -162z" />
    <glyph glyph-name="p.ordn" horiz-adv-x="478" 
d="M288 567c-51 0 -87 -51 -87 -109c0 -48 29 -73 66 -73c40 0 88 36 88 109c0 49 -28 73 -67 73zM230 614c18 23 53 41 93 41c90 0 135 -62 135 -143c0 -128 -77 -218 -180 -218c-53 0 -89 23 -104 46l-36 -171h-101l89 421c7 33 7 53 7 58h99c0 -6 0 -21 -2 -34z" />
    <glyph glyph-name="q.ordn" horiz-adv-x="460" 
d="M435 648l-102 -480h-102l33 156c-17 -16 -42 -28 -75 -28c-84 0 -136 70 -136 155c0 120 78 206 176 206c66 0 91 -31 99 -46l8 37h99zM238 564c-54 0 -83 -56 -83 -108c0 -46 26 -72 64 -72c41 0 82 38 82 111c0 45 -25 69 -63 69z" />
    <glyph glyph-name="r.ordn" horiz-adv-x="295" 
d="M318 546c-12 3 -25 5 -37 5c-38 0 -77 -16 -93 -90l-35 -159h-101l61 288c7 33 7 50 7 58h98c0 -13 0 -23 -2 -39c21 31 55 42 84 42c17 0 29 -3 40 -5z" />
    <glyph glyph-name="s.ordn" horiz-adv-x="368" 
d="M50 408l86 14c-1 -4 -1 -6 -1 -8c0 -26 19 -48 49 -48c27 0 39 15 39 31c0 11 -4 23 -25 31l-35 15c-57 25 -77 58 -77 100c0 63 54 116 134 116c107 0 130 -68 131 -108l-87 -12c0 19 -8 46 -45 46c-22 0 -37 -13 -37 -31c0 -13 7 -22 19 -27l44 -18
c56 -23 78 -59 78 -102c0 -56 -46 -115 -136 -115c-74 0 -137 34 -137 116z" />
    <glyph glyph-name="t.ordn" horiz-adv-x="306" 
d="M230 559l-28 -129c-1 -4 -2 -10 -2 -16c0 -21 14 -30 36 -30c9 0 18 1 26 3l-18 -81c-4 -2 -22 -9 -47 -9c-63 0 -101 36 -101 93c0 9 1 19 3 29l29 140h-60l19 89h16c39 0 58 21 66 57l10 46h92l-23 -103h68l-19 -89h-67z" />
    <glyph glyph-name="u.ordn" horiz-adv-x="432" 
d="M114 648h101l-42 -196c-2 -7 -2 -14 -2 -20c0 -29 16 -49 49 -49c41 0 57 37 63 65l44 200h101l-59 -282c-4 -20 -7 -41 -7 -64h-98c-1 7 -1 12 -1 17c0 4 0 9 1 17c-16 -28 -52 -42 -84 -42c-75 0 -114 50 -114 115c0 11 1 23 4 36z" />
    <glyph glyph-name="v.ordn" horiz-adv-x="376" 
d="M412 648l-201 -346h-101l-62 346h106l28 -221l116 221h114z" />
    <glyph glyph-name="w.ordn" horiz-adv-x="589" 
d="M278 648h108l25 -210l98 210h105l-177 -346h-100l-28 228l-117 -228h-105l-33 346h100l15 -209z" />
    <glyph glyph-name="x.ordn" horiz-adv-x="415" 
d="M225 401l-85 -99h-121l163 178l-91 168h112l46 -96l82 96h123l-161 -175l92 -171h-112z" />
    <glyph glyph-name="y.ordn" horiz-adv-x="396" 
d="M148 169h-112l116 187l-73 292h107l42 -186l110 186h113z" />
    <glyph glyph-name="z.ordn" horiz-adv-x="408" 
d="M333 302h-290l19 90l188 170h-147l19 86h282l-19 -84l-196 -175h163z" />
    <glyph glyph-name="space.tf" 
 />
    <glyph glyph-name="numbersign.tf" 
d="M49 396v96h104l34 157h104l-34 -157h104l34 157h105l-34 -157h87v-96h-107l-30 -140h86v-95h-107l-34 -161h-105l34 161h-104l-34 -161h-104l34 161h-83v95h104l30 140h-84zM237 396l-30 -140h104l30 140h-104z" />
    <glyph glyph-name="dollar.tf" 
d="M148 -111l24 112c-111 32 -154 126 -154 199c0 9 1 15 2 20l122 21c-1 -8 -1 -12 -1 -19c0 -59 35 -119 120 -120c58 0 95 30 96 76c0 30 -17 52 -54 71c-13 6 -63 30 -77 35c-83 37 -125 94 -125 173c0 114 94 193 210 201l21 103h108l-24 -114
c105 -31 137 -119 137 -175l-124 -21c0 24 -11 95 -106 95c-53 0 -89 -36 -89 -78c0 -33 19 -56 50 -70l73 -33c95 -44 135 -103 135 -178c0 -98 -80 -192 -215 -198l-21 -100h-108z" />
    <glyph glyph-name="percent.tf" 
d="M233 528c0 28 -18 50 -48 50s-61 -26 -61 -67c0 -28 18 -50 48 -50s61 25 61 67zM192 658c73 0 126 -56 126 -125c0 -89 -76 -152 -153 -152c-73 0 -126 55 -126 125c0 88 73 152 153 152zM546 540l-21 -101l-508 -325l20 99zM439 141c0 28 -17 50 -47 50
c-31 0 -61 -26 -61 -67c0 -28 18 -50 47 -50c31 0 61 25 61 67zM525 146c0 -89 -76 -152 -154 -152c-72 0 -125 55 -125 125c0 88 73 152 153 152c72 0 126 -56 126 -125z" />
    <glyph glyph-name="plus.tf" 
d="M326 240v-196h-112v196h-189v109h189v195h112v-195h189v-109h-189z" />
    <glyph glyph-name="comma.tf" 
d="M157 77c0 62 49 106 111 106c61 0 103 -46 103 -109c0 -143 -113 -255 -256 -264l16 76c54 5 122 51 137 114c-5 -2 -17 -4 -26 -4c-52 0 -85 35 -85 81z" />
    <glyph glyph-name="period.tf" 
d="M239 -7c-56 0 -92 42 -92 91c0 60 50 112 114 112c56 0 93 -41 93 -91c0 -61 -52 -112 -115 -112z" />
    <glyph glyph-name="zero.tf" 
d="M150 233c0 -69 21 -126 97 -126c116 0 157 207 157 311c0 66 -18 124 -97 124c-125 0 -157 -224 -157 -309zM240 -15c-163 2 -225 116 -225 242c0 158 69 437 299 437c162 0 226 -118 226 -244c0 -169 -76 -435 -300 -435z" />
    <glyph glyph-name="one.tf" 
d="M29 117h163l68 324h-148l20 91c85 3 163 50 190 117h119l-112 -532h172l-25 -117h-471z" />
    <glyph glyph-name="two.tf" 
d="M-30 0c0 4 4 24 4 28c21 116 78 206 208 264l119 53c65 29 101 63 101 115c0 41 -25 83 -92 83c-76 0 -113 -56 -113 -142l-128 14c0 139 92 249 249 249c151 0 221 -88 221 -189c0 -109 -67 -179 -173 -227l-138 -62c-29 -13 -57 -38 -73 -67h316l-25 -119h-476z" />
    <glyph glyph-name="three.tf" 
d="M209 299l-46 103l202 129h-286l23 118h460l-27 -135l-193 -124c82 -9 146 -74 146 -169c0 -122 -102 -236 -258 -236c-154 0 -237 104 -237 211c0 3 0 10 2 18l134 15c-1 -7 -1 -16 -1 -19c0 -59 38 -106 103 -106c69 0 118 45 118 112c0 63 -48 90 -99 90
c-10 0 -25 -1 -41 -7z" />
    <glyph glyph-name="four.tf" 
d="M-14 139l30 145l345 365h166l-84 -392h93l-25 -118h-93l-28 -139h-136l28 139h-296zM307 257l53 244l-227 -244h174z" />
    <glyph glyph-name="five.tf" 
d="M11 194v4l130 25c-1 -2 -1 -8 -1 -13c0 -55 36 -108 106 -108c61 0 119 41 119 120c0 61 -45 96 -103 96c-39 0 -69 -14 -91 -34l-115 57l135 308h365l-25 -119h-265l-58 -129c26 16 65 24 95 24c127 0 201 -73 201 -188c0 -138 -101 -253 -260 -253
c-141 0 -233 99 -233 210z" />
    <glyph glyph-name="six.tf" 
d="M585 620l-55 -106c-34 18 -78 27 -123 27c-102 0 -196 -59 -230 -168c32 36 85 58 141 58c126 0 200 -77 200 -188c0 -152 -117 -257 -262 -257c-134 0 -237 96 -237 249c0 230 158 423 398 423c74 0 136 -16 168 -38zM276 320c-66 0 -120 -48 -120 -118
c0 -58 42 -99 103 -99c62 0 119 45 119 120c0 58 -39 97 -102 97z" />
    <glyph glyph-name="seven.tf" 
d="M47 532l24 117h514l-24 -115c-59 -39 -277 -208 -373 -534h-145c84 317 308 500 351 532h-347z" />
    <glyph glyph-name="eight.tf" 
d="M305 381c61 0 102 42 102 93c0 38 -27 76 -85 76c-69 0 -105 -45 -105 -93c0 -37 27 -76 88 -76zM145 182c0 -51 43 -85 103 -85c68 0 114 47 114 100c0 44 -31 85 -103 85c-70 0 -114 -47 -114 -100zM495 186c0 -127 -121 -201 -255 -201c-129 0 -230 64 -230 180
c0 85 65 152 160 172c-45 20 -85 72 -85 131c0 117 106 196 242 196c142 0 219 -78 219 -173c0 -77 -53 -142 -139 -167c55 -21 88 -81 88 -138z" />
    <glyph glyph-name="nine.tf" 
d="M170 428c0 -58 40 -96 102 -96c66 0 117 47 117 116c0 59 -42 98 -101 98c-61 0 -118 -43 -118 -118zM-32 37l54 106c41 -25 86 -36 130 -36c109 0 197 68 222 175c-31 -38 -80 -60 -137 -60c-120 0 -204 81 -204 196c0 152 119 246 260 246c137 0 237 -93 237 -249
c0 -261 -158 -430 -379 -430c-65 0 -133 16 -183 52z" />
    <glyph glyph-name="colon.tf" 
d="M218 -9c-52 0 -85 39 -85 85c0 55 46 102 105 102c52 0 85 -38 85 -84c0 -55 -47 -103 -105 -103zM287 314c-52 0 -86 39 -86 84c0 55 47 102 105 102c52 0 86 -37 86 -83c0 -56 -48 -103 -105 -103z" />
    <glyph glyph-name="semicolon.tf" 
d="M139 71c0 56 45 96 101 96c57 0 95 -42 95 -99c0 -131 -104 -234 -234 -242l14 70c50 5 112 47 125 104c-4 -2 -15 -4 -23 -4c-47 0 -78 33 -78 75zM294 312c-52 0 -86 38 -86 84c0 56 47 104 106 104c52 0 86 -38 86 -84c0 -57 -48 -104 -106 -104z" />
    <glyph glyph-name="less.tf" 
d="M61 244v101l430 217v-123l-296 -143l296 -143v-125z" />
    <glyph glyph-name="equal.tf" 
d="M30 341v107h485v-107h-485zM30 142v108h485v-108h-485z" />
    <glyph glyph-name="greater.tf" 
d="M492 345v-100l-430 -217v123l296 143l-296 143v125z" />
    <glyph glyph-name="cent.tf" 
d="M171 0l20 95c-85 29 -137 105 -137 200c0 151 109 254 236 267l18 87h102l-20 -96c79 -23 120 -84 131 -142l-114 -33c-8 38 -38 74 -98 74c-62 0 -129 -52 -129 -155c0 -65 42 -104 104 -104c55 0 87 32 106 66l105 -39c-33 -68 -100 -134 -205 -140l-17 -80h-102z" />
    <glyph glyph-name="sterling.tf" horiz-adv-x="593" 
d="M45 273l22 102h67c-4 20 -7 41 -7 65c0 119 80 222 223 222c138 0 193 -81 193 -169c0 -13 -2 -25 -3 -28l-120 -13c1 4 2 13 2 23c0 42 -24 76 -76 76c-51 0 -94 -33 -94 -111c0 -21 4 -43 8 -65h177l-22 -102h-144c-5 -68 -43 -130 -107 -157h161c58 0 89 39 96 86
l115 -21c-18 -108 -97 -181 -205 -181h-347l25 120c84 16 130 84 136 153h-100z" />
    <glyph glyph-name="currency.tf" 
d="M53 245c0 40 10 76 29 108l-72 73l80 80l74 -75c31 17 67 27 105 27c37 0 72 -9 103 -26l73 74l81 -80l-71 -71c20 -32 31 -70 31 -110c0 -41 -11 -78 -31 -109l71 -71l-80 -80l-73 73c-31 -17 -67 -26 -104 -26c-38 0 -74 9 -106 27l-73 -74l-80 80l72 73
c-19 31 -29 67 -29 107zM164 245c0 -61 45 -105 105 -105c61 0 105 44 105 105s-44 105 -105 105c-60 0 -105 -44 -105 -105z" />
    <glyph glyph-name="yen.tf" 
d="M42 298l20 94h98l-90 257h144l73 -245l174 245h152l-198 -257h106l-20 -94h-168l-15 -69h168l-21 -94h-167l-28 -135h-130l28 135h-161l21 94h160l15 69h-161z" />
    <glyph glyph-name="section.tf" 
d="M8 2l128 9c-3 -11 -4 -21 -4 -30c0 -48 32 -75 81 -75c43 0 81 30 81 76c0 22 -11 43 -30 56l-91 63c-58 39 -106 86 -106 157c0 80 55 124 107 144c-35 34 -50 78 -50 121c0 124 117 201 225 201c130 0 199 -77 199 -172c0 -11 -1 -22 -3 -34l-128 -9c2 6 3 18 3 29
c0 48 -32 74 -80 74c-43 0 -81 -31 -81 -76c0 -20 11 -41 31 -55l89 -63c58 -41 107 -85 107 -155c0 -82 -55 -127 -107 -147c34 -33 50 -76 50 -116c0 -128 -115 -205 -226 -205c-128 0 -198 77 -198 171c0 11 1 23 3 36zM329 289l-89 63c-28 -15 -46 -38 -46 -69
c0 -21 8 -38 30 -53l89 -64c27 15 46 38 46 70c0 20 -9 38 -30 53z" />
    <glyph glyph-name="logicalnot.tf" 
d="M511 136h-115v195h-363v110h478v-305z" />
    <glyph glyph-name="plusminus.tf" 
d="M333 313v-123h-112v123h-178v108h178v123h112v-123h178v-108h-178zM43 44v109h468v-109h-468z" />
    <glyph glyph-name="multiply.tf" 
d="M115 48l-79 79l165 168l-165 168l80 79l164 -167l165 167l80 -78l-166 -169l166 -168l-79 -80l-166 168z" />
    <glyph glyph-name="divide.tf" 
d="M25 240v111h488v-111h-488zM188 112c0 43 36 78 78 78c43 0 78 -35 78 -78c0 -42 -35 -78 -78 -78c-42 0 -78 36 -78 78zM188 479c0 42 36 77 78 77c43 0 78 -35 78 -77s-35 -78 -78 -78c-42 0 -78 36 -78 78z" />
    <glyph glyph-name="florin.tf" 
d="M144 27l71 352h-98v112h121l19 92c22 111 107 157 187 157c47 0 61 -4 89 -13v-115c-18 4 -35 7 -60 7c-28 0 -73 -11 -86 -75l-11 -53h117v-112h-140l-79 -392c-22 -110 -107 -157 -187 -157c-47 0 -65 5 -92 14v114c18 -4 40 -7 65 -7c27 0 71 10 84 76z" />
    <glyph glyph-name="uni2007.tf" 
 />
    <glyph glyph-name="uni2008.tf" 
 />
    <glyph glyph-name="perthousand.tf" 
d="M230 65c25 0 51 23 51 57c0 25 -15 42 -40 42s-51 -23 -51 -57c0 -25 15 -42 40 -42zM40 526c0 77 64 133 134 133c64 0 112 -48 112 -110c0 -79 -66 -134 -135 -134c-65 0 -111 49 -111 111zM224 -9c-65 0 -111 49 -111 111c0 77 64 134 135 134c33 0 60 -13 79 -34
c23 22 54 34 87 34c64 0 111 -48 111 -110c0 -79 -66 -135 -134 -135c-34 0 -61 14 -80 35c-24 -22 -55 -35 -87 -35zM549 593l-22 -103l-512 -318l22 102zM168 587c-26 0 -51 -23 -51 -57c0 -25 15 -42 39 -42c26 0 52 20 52 57c0 24 -15 41 -40 42zM396 65
c26 0 52 20 52 57c0 23 -15 42 -41 42s-51 -20 -51 -57c0 -23 14 -42 40 -42z" />
    <glyph glyph-name="Euro.tf" 
d="M49 354l20 94h69c60 130 188 216 334 216c79 0 118 -17 153 -35l-57 -109c-21 13 -58 24 -106 24c-61 0 -133 -29 -178 -96h247l-47 -94h-238c-4 -20 -7 -41 -7 -64h217l-47 -94h-151c30 -61 95 -90 170 -90c23 0 41 3 57 7l7 -115c-22 -8 -53 -14 -87 -14
c-141 0 -256 83 -291 212h-99l20 94h68c0 22 3 43 6 64h-60z" />
    <glyph glyph-name="minus.tf" 
d="M33 241v109h475v-109h-475z" />
    <glyph glyph-name="approxequal.tf" 
d="M444 261l71 -58c-37 -65 -97 -100 -163 -100c-35 0 -71 10 -107 30l-48 26c-18 9 -36 14 -53 14c-32 0 -63 -16 -87 -47l-73 59c37 65 97 101 163 101c34 0 71 -10 107 -30l47 -26c19 -11 39 -16 58 -16c32 0 62 15 85 47zM444 463l71 -59c-37 -65 -97 -100 -163 -100
c-35 0 -71 10 -107 30l-48 26c-18 10 -36 15 -54 15c-32 0 -62 -17 -86 -48l-73 59c37 65 96 101 162 101c35 0 71 -10 108 -30l47 -26c19 -11 39 -16 58 -16c32 0 62 16 85 48z" />
    <glyph glyph-name="notequal.tf" 
d="M31 341v107h290l60 92h120l-60 -92h75v-107h-145l-59 -91h204v-108h-275l-63 -97h-120l63 97h-90v108h161l59 91h-220z" />
    <glyph glyph-name="lessequal.tf" 
d="M64 44v109h430v-109h-430zM64 316v108l430 136v-110l-279 -78l279 -79v-112z" />
    <glyph glyph-name="greaterequal.tf" 
d="M484 153v-109h-430v109h430zM484 424v-108l-430 -135v110l279 78l-279 79v112z" />
    <glyph glyph-name="parenleft.case" horiz-adv-x="321" 
d="M27 246c0 242 113 440 321 569l61 -79c-159 -114 -271 -251 -271 -487c0 -113 40 -224 98 -310l-86 -61c-64 86 -123 219 -123 368z" />
    <glyph glyph-name="parenright.case" horiz-adv-x="323" 
d="M293 447c0 -242 -116 -437 -321 -569l-60 79c155 116 271 251 271 488c0 112 -40 223 -99 309l87 61c63 -86 122 -219 122 -368z" />
    <glyph glyph-name="hyphen.case" horiz-adv-x="365" 
d="M311 288h-290l25 118h291z" />
    <glyph glyph-name="bracketleft.case" horiz-adv-x="320" 
d="M216 -109h-230l196 926h230l-21 -102h-119l-154 -721h120z" />
    <glyph glyph-name="bracketright.case" horiz-adv-x="325" 
d="M137 -109h-230l21 103h119l154 721h-120l22 102h230z" />
    <glyph glyph-name="braceleft.case" horiz-adv-x="370" 
d="M27 300l23 111c56 0 109 24 123 92l25 120c30 144 111 193 231 193h34l-22 -101h-29c-49 0 -88 -22 -102 -89l-31 -145c-14 -66 -57 -116 -127 -129c49 -13 73 -53 73 -102c0 -11 -1 -22 -3 -34l-27 -130c-2 -11 -3 -20 -3 -29c0 -46 30 -63 71 -63h25l-21 -101h-28
c-98 0 -159 54 -159 149c0 17 2 35 6 55l23 109c2 10 3 19 3 27c0 48 -36 67 -85 67z" />
    <glyph glyph-name="braceright.case" horiz-adv-x="371" 
d="M343 409l-24 -111c-55 0 -108 -24 -122 -92l-25 -120c-30 -144 -113 -193 -231 -193h-34l21 101h30c49 0 87 21 102 89l31 145c14 66 57 117 127 129c-48 14 -74 52 -74 102c0 11 1 22 4 34l27 130c2 10 3 20 3 28c0 47 -30 64 -71 64h-25l21 101h28
c97 0 159 -55 159 -149c0 -17 -2 -36 -6 -55l-24 -109c-2 -9 -3 -18 -3 -26c0 -49 37 -68 86 -68z" />
    <glyph glyph-name="exclamdown.case" horiz-adv-x="309" 
d="M231 493l-72 -493h-161l136 493h97zM288 646c0 -48 -39 -88 -87 -88c-44 0 -72 32 -72 71c0 49 42 88 86 88c43 0 73 -31 73 -71z" />
    <glyph glyph-name="guillemotleft.case" horiz-adv-x="520" 
d="M226 151h-120l-100 197l176 194h133l-185 -202zM445 151h-120l-100 197l176 194h133l-185 -202z" />
    <glyph glyph-name="uni00AD.case" horiz-adv-x="365" 
d="M313 295h-290l25 118h291z" />
    <glyph glyph-name="guillemotright.case" horiz-adv-x="518" 
d="M46 542h120l101 -198l-177 -193h-132l184 202zM269 542h120l101 -198l-177 -193h-132l184 202z" />
    <glyph glyph-name="questiondown.case" horiz-adv-x="504" 
d="M241 495h107c-1 -64 -20 -138 -109 -188l-56 -32c-40 -23 -58 -57 -58 -93c0 -39 25 -78 87 -78c77 0 115 63 115 130l124 -14c-2 -132 -101 -234 -248 -234c-145 0 -216 89 -216 177c0 100 57 163 136 208l47 27c46 26 67 54 71 97zM389 647c0 -48 -40 -88 -88 -88
c-44 0 -71 32 -71 71c0 49 41 88 86 88c43 0 73 -31 73 -71z" />
    <glyph glyph-name="endash.case" horiz-adv-x="629" 
d="M553 289h-516l24 115h516z" />
    <glyph glyph-name="emdash.case" horiz-adv-x="1073" 
d="M987 289h-940l24 115h940z" />
    <glyph glyph-name="guilsinglleft.case" horiz-adv-x="301" 
d="M226 151h-120l-100 197l176 194h133l-185 -202z" />
    <glyph glyph-name="guilsinglright.case" horiz-adv-x="295" 
d="M46 542h120l101 -198l-177 -193h-132l184 202z" />
    <glyph glyph-name="G.ss01" horiz-adv-x="750" 
d="M417 724c189 0 282 -113 301 -222l-135 -40c-13 66 -65 131 -176 131c-127 0 -234 -112 -234 -279c0 -117 70 -199 188 -199c107 0 172 65 191 131h-240l26 119h373c-7 -208 -129 -381 -360 -381c-184 0 -319 138 -319 322c0 266 190 418 385 418z" />
    <glyph glyph-name="r.ss03" horiz-adv-x="407" 
d="M301 321c-50 0 -82 37 -82 80v11l-88 -412h-132l94 442c4 20 5 34 5 50h134c0 -10 -2 -29 -4 -40l-6 -26c12 41 51 73 98 73c49 0 81 -37 81 -80c0 -53 -45 -98 -100 -98z" />
    <glyph glyph-name="ampersand.ss04" horiz-adv-x="682" 
d="M639 220h-74c-26 -132 -134 -235 -287 -235c-170 0 -259 96 -259 205c0 135 109 201 191 212c-47 23 -80 71 -80 128c0 119 114 195 223 195c145 0 215 -86 215 -179c0 -4 -1 -22 -3 -34l-132 -5c2 9 2 19 2 25c0 44 -24 79 -84 79c-42 0 -90 -32 -90 -87
c0 -50 41 -74 86 -74l-25 -114h-16c-55 0 -145 -27 -145 -130c0 -51 38 -103 124 -103c69 0 128 44 145 117h-86l24 115h294z" />
    <glyph glyph-name="one.ss05" horiz-adv-x="454" 
d="M-5 117h132l69 324h-138l20 91c84 3 153 50 180 117h119l-113 -532h156l-25 -117h-425z" />
    <glyph glyph-name="registered.ss06" horiz-adv-x="406" 
d="M42 526c0 105 86 191 191 191s192 -86 192 -191s-87 -191 -192 -191s-191 86 -191 191zM95 526c0 -79 60 -141 138 -141s138 62 138 141s-60 141 -138 141s-138 -62 -138 -141zM225 541h16c16 0 28 8 28 21c0 14 -6 20 -20 20h-15zM243 431l-15 65h-12l-14 -65h-56
l42 196h78c37 0 59 -24 59 -56s-19 -57 -47 -66l21 -74h-56z" />
    <glyph glyph-name="caron.alt" horiz-adv-x="195" 
d="M173 709l-113 -198h-93l70 198h136z" />
    <glyph glyph-name="commaaccent" horiz-adv-x="189" 
d="M-23 541l10 48c5 -1 10 -1 15 -1c29 0 61 8 75 39c-2 -1 -11 -4 -22 -4c-40 0 -61 26 -61 55c0 39 33 69 76 69c46 0 74 -30 74 -74c0 -84 -65 -134 -141 -134c-8 0 -17 1 -26 2z" />
    <glyph glyph-name="commaturn" horiz-adv-x="168" 
d="M128 613c0 -38 -32 -70 -76 -70s-74 33 -74 76c0 88 74 134 144 134c10 0 17 -1 23 -2l-10 -49c-3 1 -12 2 -16 2c-45 0 -69 -24 -74 -40c1 1 12 5 23 5c41 0 60 -27 60 -56z" />
    <glyph glyph-name="dieresis.narrow" horiz-adv-x="314" 
d="M-25 621c0 39 34 74 75 74c36 0 61 -27 61 -60c0 -43 -38 -74 -75 -74c-38 0 -61 27 -61 60zM143 621c0 39 34 74 75 74c36 0 61 -27 61 -60c0 -43 -38 -74 -75 -74c-38 0 -61 27 -61 60z" />
    <glyph glyph-name="dieresis.uc.narrow" horiz-adv-x="335" 
d="M-24 815c0 40 34 77 77 77c36 0 61 -28 61 -61c0 -45 -35 -76 -76 -76c-36 0 -62 25 -62 60zM161 815c0 40 34 77 77 77c36 0 61 -28 61 -61c0 -45 -35 -76 -76 -76c-36 0 -62 25 -62 60z" />
    <glyph glyph-name="grave.uc" horiz-adv-x="274" 
d="M104 759l-116 127h155l76 -127h-115z" />
    <glyph glyph-name="dieresis.uc" horiz-adv-x="426" 
d="M-19 815c0 41 35 80 80 80c39 0 65 -29 65 -64c0 -47 -38 -80 -79 -80c-39 0 -66 27 -66 64zM240 815c0 41 35 80 80 80c39 0 65 -29 65 -64c0 -47 -38 -80 -79 -80c-39 0 -66 27 -66 64z" />
    <glyph glyph-name="macron.uc" horiz-adv-x="319" 
d="M272 774h-304l20 100h305z" />
    <glyph glyph-name="acute.uc" horiz-adv-x="274" 
d="M259 886l-169 -127h-128l128 127h169z" />
    <glyph glyph-name="circumflex.uc" horiz-adv-x="393" 
d="M89 759h-125l146 127h137l94 -127h-116l-54 65z" />
    <glyph glyph-name="caron.uc" horiz-adv-x="393" 
d="M245 886h128l-148 -127h-137l-92 127h115l53 -64z" />
    <glyph glyph-name="breve.uc" horiz-adv-x="350" 
d="M140 754c-85 0 -145 45 -145 118c0 4 1 14 2 17h96c-1 -5 -1 -8 -1 -10c0 -22 17 -41 54 -41c42 0 66 24 73 51h104c-18 -65 -78 -135 -183 -135z" />
    <glyph glyph-name="dotaccent.uc" horiz-adv-x="176" 
d="M-23 827c0 44 40 86 89 86c43 0 73 -32 73 -70c0 -50 -41 -89 -88 -89c-44 0 -74 33 -74 73z" />
    <glyph glyph-name="ring.uc" horiz-adv-x="276" 
d="M111 917c-26 0 -52 -22 -52 -53c0 -25 18 -41 44 -41c27 0 53 20 53 52c0 25 -19 42 -45 42zM-23 857c0 78 66 139 142 139c68 0 121 -49 121 -114c0 -80 -71 -139 -143 -139c-67 0 -120 49 -120 114z" />
    <glyph glyph-name="tilde.uc" horiz-adv-x="354" 
d="M342 890c-15 -101 -64 -137 -123 -137c-30 0 -54 12 -73 24l-5 3c-17 10 -32 20 -47 20c-17 0 -31 -13 -36 -43h-85c10 101 67 136 126 136c31 0 55 -13 74 -25l3 -2c18 -12 29 -19 44 -19c18 0 32 12 37 43h85z" />
    <glyph glyph-name="hungarumlaut.uc" horiz-adv-x="365" 
d="M170 886l-121 -127h-88l78 127h131zM343 886l-134 -127h-90l92 127h132z" />
    <glyph glyph-name="caron.alt.uc" horiz-adv-x="194" 
d="M176 709l-118 -208h-97l73 208h142z" />
    <glyph glyph-name="undercommaaccent" horiz-adv-x="169" 
d="M-21 -111c0 39 32 69 76 69c46 0 75 -32 75 -75c0 -89 -71 -133 -140 -133c-13 0 -25 2 -29 3l11 47c5 -1 12 -1 14 -1c29 0 63 9 75 39c-1 -1 -10 -4 -21 -4c-40 0 -61 26 -61 55z" />
    </font>
</defs>
</svg>
